<?xml version="1.0" standalone="no"?>
<!DOCTYPE svg PUBLIC "-//W3C//DTD SVG 1.1//EN" "http://www.w3.org/Graphics/SVG/1.1/DTD/svg11.dtd" >
<svg xmlns="http://www.w3.org/2000/svg">
<metadata>Generated by IcoMoon</metadata>
<defs>
<font id="icomoon" horiz-adv-x="1024">
<font-face units-per-em="1024" ascent="960" descent="-64" />
<missing-glyph horiz-adv-x="1024" />
<glyph unicode="&#x20;" horiz-adv-x="512" d="" />
<glyph unicode="&#xe000;" glyph-name="error" d="M554 384.667v256h-84v-256h84zM554 212.667v86h-84v-86h84zM512 852.667c236 0 426-190 426-426s-190-426-426-426-426 190-426 426 190 426 426 426z" />
<glyph unicode="&#xe001;" glyph-name="error_outline" d="M512 84.667c188 0 342 154 342 342s-154 342-342 342-342-154-342-342 154-342 342-342zM512 852.667c236 0 426-190 426-426s-190-426-426-426-426 190-426 426 190 426 426 426zM470 640.667h84v-256h-84v256zM470 298.667h84v-86h-84v86z" />
<glyph unicode="&#xe002;" glyph-name="warning" d="M554 340.667v172h-84v-172h84zM554 170.667v86h-84v-86h84zM42 42.667l470 810 470-810h-940z" />
<glyph unicode="&#xe01c;" glyph-name="closed_caption" d="M768 468.667v44c0 24-18 42-42 42h-128c-24 0-44-18-44-42v-172c0-24 20-42 44-42h128c24 0 42 18 42 42v44h-64v-22h-86v128h86v-22h64zM470 468.667v44c0 24-20 42-44 42h-128c-24 0-42-18-42-42v-172c0-24 18-42 42-42h128c24 0 44 18 44 42v44h-64v-22h-86v128h86v-22h64zM810 768.667c46 0 86-40 86-86v-512c0-46-40-86-86-86h-596c-48 0-86 40-86 86v512c0 46 38 86 86 86h596z" />
<glyph unicode="&#xe01d;" glyph-name="equalizer" d="M682 554.667h172v-470h-172v470zM170 84.667v342h172v-342h-172zM426 84.667v684h172v-684h-172z" />
<glyph unicode="&#xe01f;" glyph-name="fast_forward" d="M554 682.667l364-256-364-256v512zM170 170.667v512l364-256z" />
<glyph unicode="&#xe020;" glyph-name="fast_rewind" d="M490 426.667l364 256v-512zM470 170.667l-364 256 364 256v-512z" />
<glyph unicode="&#xe023;" glyph-name="hearing" d="M490 554.667c0 58 50 106 108 106s106-48 106-106-48-106-106-106-108 48-108 106zM326 826.667c-70-70-112-166-112-272s42-202 112-272l-60-60c-84 84-138 202-138 332s54 248 138 332zM726 84.667c46 0 84 40 84 86h86c0-94-76-170-170-170-24 0-48 4-70 14-58 30-92 74-118 152-14 42-38 62-72 88-38 28-84 64-122 134-30 54-46 112-46 166 0 168 132 298 300 298s298-130 298-298h-86c0 120-92 214-212 214s-214-94-214-214c0-40 12-86 34-126 30-56 66-82 100-108 40-30 80-62 102-128 22-64 42-84 72-100 8-4 22-8 34-8z" />
<glyph unicode="&#xe029;" glyph-name="mic" d="M738 468.667h72c0-146-116-266-256-286v-140h-84v140c-140 20-256 140-256 286h72c0-128 108-216 226-216s226 88 226 216zM512 340.667c-70 0-128 58-128 128v256c0 70 58 128 128 128s128-58 128-128v-256c0-70-58-128-128-128z" />
<glyph unicode="&#xe02a;" glyph-name="mic_none" d="M738 468.667h72c0-146-116-266-256-286v-140h-84v140c-140 20-256 140-256 286h72c0-128 108-216 226-216s226 88 226 216zM460 728.667v-264c0-28 24-50 52-50s50 22 50 50l2 264c0 28-24 52-52 52s-52-24-52-52zM512 340.667c-70 0-128 58-128 128v256c0 70 58 128 128 128s128-58 128-128v-256c0-70-58-128-128-128z" />
<glyph unicode="&#xe02b;" glyph-name="mic_off" d="M182 810.667l714-714-54-54-178 178c-32-20-72-32-110-38v-140h-84v140c-140 20-256 140-256 286h72c0-128 108-216 226-216 34 0 68 8 98 22l-70 70c-8-2-18-4-28-4-70 0-128 58-128 128v32l-256 256zM640 462.667l-256 254v8c0 70 58 128 128 128s128-58 128-128v-262zM810 468.667c0-50-14-98-38-140l-52 54c12 26 18 54 18 86h72z" />
<glyph unicode="&#xe02f;" glyph-name="library_books" d="M810 640.667v84h-426v-84h426zM640 298.667v86h-256v-86h256zM810 468.667v86h-426v-86h426zM854 852.667c46 0 84-38 84-84v-512c0-46-38-86-84-86h-512c-46 0-86 40-86 86v512c0 46 40 84 86 84h512zM170 682.667v-598h598v-84h-598c-46 0-84 38-84 84v598h84z" />
<glyph unicode="&#xe030;" glyph-name="library_music" d="M170 682.667v-598h598v-84h-598c-46 0-84 38-84 84v598h84zM768 640.667v84h-170v-234c-18 14-40 22-64 22-58 0-108-50-108-108s50-106 108-106 106 48 106 106v236h128zM854 852.667c46 0 84-38 84-84v-512c0-46-38-86-84-86h-512c-46 0-86 40-86 86v512c0 46 40 84 86 84h512z" />
<glyph unicode="&#xe031;" glyph-name="new_releases" d="M554 384.667v256h-84v-256h84zM554 212.667v86h-84v-86h84zM982 426.667l-104-118 14-158-154-34-80-136-146 62-146-62-80 134-154 36 14 158-104 118 104 120-14 156 154 34 80 136 146-62 146 62 80-136 154-34-14-158z" />
<glyph unicode="&#xe034;" glyph-name="pause" d="M598 724.667h170v-596h-170v596zM256 128.667v596h170v-596h-170z" />
<glyph unicode="&#xe035;" glyph-name="pause_circle_filled" d="M640 256.667v340h-86v-340h86zM470 256.667v340h-86v-340h86zM512 852.667c236 0 426-190 426-426s-190-426-426-426-426 190-426 426 190 426 426 426z" />
<glyph unicode="&#xe036;" glyph-name="pause_circle_outline" d="M554 256.667v340h86v-340h-86zM512 84.667c188 0 342 154 342 342s-154 342-342 342-342-154-342-342 154-342 342-342zM512 852.667c236 0 426-190 426-426s-190-426-426-426-426 190-426 426 190 426 426 426zM384 256.667v340h86v-340h-86z" />
<glyph unicode="&#xe037;" glyph-name="play_arrow" d="M342 724.667l468-298-468-298v596z" />
<glyph unicode="&#xe038;" glyph-name="play_circle_filled" d="M426 234.667l256 192-256 192v-384zM512 852.667c236 0 426-190 426-426s-190-426-426-426-426 190-426 426 190 426 426 426z" />
<glyph unicode="&#xe039;" glyph-name="play_circle_outline" d="M512 84.667c188 0 342 154 342 342s-154 342-342 342-342-154-342-342 154-342 342-342zM512 852.667c236 0 426-190 426-426s-190-426-426-426-426 190-426 426 190 426 426 426zM426 234.667v384l256-192z" />
<glyph unicode="&#xe03b;" glyph-name="playlist_add" d="M86 256.667v84h340v-84h-340zM768 340.667h170v-84h-170v-172h-86v172h-170v84h170v172h86v-172zM598 682.667v-86h-512v86h512zM598 512.667v-86h-512v86h512z" />
<glyph unicode="&#xe03d;" glyph-name="queue_music" d="M726 682.667h212v-86h-128v-384c0-70-58-128-128-128s-128 58-128 128 58 128 128 128c14 0 30-4 44-8v350zM128 256.667v84h342v-84h-342zM640 512.667v-86h-512v86h512zM640 682.667v-86h-512v86h512z" />
<glyph unicode="&#xe03e;" glyph-name="radio" d="M854 426.667v170h-684v-170h512v86h86v-86h86zM298 84.667c70 0 128 58 128 128s-58 128-128 128-128-58-128-128 58-128 128-128zM138 676.667l540 220 28-72-352-142h500c48 0 84-38 84-86v-512c0-46-36-84-84-84h-684c-48 0-84 38-84 84v512c0 36 20 68 52 80z" />
<glyph unicode="&#xe03f;" glyph-name="recent_actors" d="M534 212.667v32c0 64-128 96-192 96s-192-32-192-96v-32h384zM342 608.667c-52 0-96-44-96-96s44-96 96-96 96 44 96 96-44 96-96 96zM598 724.667c24 0 42-18 42-42v-512c0-24-18-42-42-42h-512c-24 0-44 18-44 42v512c0 24 20 42 44 42h512zM726 128.667v596h84v-596h-84zM896 724.667h86v-596h-86v596z" />
<glyph unicode="&#xe040;" glyph-name="repeat" d="M726 212.667v172h84v-256h-512v-128l-170 170 170 170v-128h428zM298 640.667v-172h-84v256h512v128l170-170-170-170v128h-428z" />
<glyph unicode="&#xe041;" glyph-name="repeat_one" d="M554 298.667h-64v170h-64v44l86 42h42v-256zM726 212.667v172h84v-256h-512v-128l-170 170 170 170v-128h428zM298 640.667v-172h-84v256h512v128l170-170-170-170v128h-428z" />
<glyph unicode="&#xe042;" glyph-name="replay" d="M512 724.667c188 0 342-152 342-340s-154-342-342-342-342 154-342 342h86c0-142 114-256 256-256s256 114 256 256-114 256-256 256v-172l-214 214 214 214v-172z" />
<glyph unicode="&#xe044;" glyph-name="skip_next" d="M682 682.667h86v-512h-86v512zM256 170.667v512l362-256z" />
<glyph unicode="&#xe045;" glyph-name="skip_previous" d="M406 426.667l362 256v-512zM256 682.667h86v-512h-86v512z" />
<glyph unicode="&#xe048;" glyph-name="subtitles" d="M854 340.667v86h-428v-86h428zM854 170.667v86h-172v-86h172zM598 170.667v86h-428v-86h428zM170 426.667v-86h172v86h-172zM854 768.667c46 0 84-40 84-86v-512c0-46-38-86-84-86h-684c-46 0-84 40-84 86v512c0 46 38 86 84 86h684z" />
<glyph unicode="&#xe04a;" glyph-name="video_library" d="M512 320.667l256 192-256 192v-384zM854 852.667c46 0 84-38 84-84v-512c0-46-38-86-84-86h-512c-46 0-86 40-86 86v512c0 46 40 84 86 84h512zM170 682.667v-598h598v-84h-598c-46 0-84 38-84 84v598h84z" />
<glyph unicode="&#xe04d;" glyph-name="volume_down" d="M214 554.667h170l214 214v-684l-214 214h-170v256zM790 426.667c0-76-44-140-108-172v344c64-32 108-96 108-172z" />
<glyph unicode="&#xe04e;" glyph-name="volume_mute" d="M298 554.667h172l212 214v-684l-212 214h-172v256z" />
<glyph unicode="&#xe04f;" glyph-name="volume_off" d="M512 768.667v-180l-90 90zM182 810.667l714-714-54-54-88 88c-46-36-98-64-156-78v88c36 10 68 28 96 50l-182 182v-288l-214 214h-170v256h202l-202 202zM810 426.667c0 136-88 250-212 286v88c172-38 298-192 298-374 0-64-16-126-44-178l-64 66c14 34 22 72 22 112zM704 426.667c0-10 0-18-2-26l-104 104v94c64-32 106-96 106-172z" />
<glyph unicode="&#xe050;" glyph-name="volume_up" d="M598 800.667c172-38 298-192 298-374s-126-336-298-374v88c124 36 212 150 212 286s-88 250-212 286v88zM704 426.667c0-76-42-140-106-172v344c64-32 106-96 106-172zM128 554.667h170l214 214v-684l-214 214h-170v256z" />
<glyph unicode="&#xe052;" glyph-name="hd" d="M618 362.667v128h86v-128h-86zM554 554.667v-256h172c24 0 42 18 42 42v172c0 24-18 42-42 42h-172zM470 298.667v256h-64v-106h-86v106h-64v-256h64v86h86v-86h64zM810 810.667c46 0 86-40 86-86v-596c0-46-40-86-86-86h-596c-48 0-86 40-86 86v596c0 46 38 86 86 86h596z" />
<glyph unicode="&#xe05d;" glyph-name="fiber_dvr" d="M896 448.667v42c0 36-28 64-64 64h-150v-256h64v86h50l36-86h64l-38 90c22 10 38 34 38 60zM538 298.667l76 256h-64l-44-146-42 146h-64l74-256h64zM342 362.667v128c0 36-28 64-64 64h-150v-256h150c36 0 64 28 64 64zM896 810.667c48 0 86-38 86-86v-596c0-46-38-86-86-86h-768c-48 0-86 40-86 86v596c0 48 38 86 86 86h768zM192 490.667h86v-128h-86v128zM746 490.667h86v-42h-86v42z" />
<glyph unicode="&#xe05e;" glyph-name="fiber_new" d="M874 340.667v214h-52v-192h-48v150h-54v-150h-48v192h-54v-214c0-24 20-42 44-42h170c24 0 42 18 42 42zM576 500.667v54h-170v-256h170v54h-106v46h106v54h-106v48h106zM362 298.667v256h-52v-150l-108 150h-52v-256h52v150l110-150h50zM854 768.667c48 0 84-38 84-86v-512c0-48-36-86-84-86h-684c-48 0-84 38-84 86v512c0 48 36 86 84 86h684z" />
<glyph unicode="&#xe05f;" glyph-name="playlist_play" d="M726 384.667l212-128-212-128v256zM86 298.667v86h554v-86h-554zM810 724.667v-84h-724v84h724zM810 554.667v-86h-724v86h724z" />
<glyph unicode="&#xe064;" glyph-name="subscriptions" d="M682 256.667l-256 138v-278zM938 426.667v-342c0-46-38-84-84-84h-684c-46 0-84 38-84 84v342c0 46 38 86 84 86h684c46 0 84-40 84-86zM768 852.667v-84h-512v84h512zM854 596.667h-684v86h684v-86z" />
<glyph unicode="&#xe065;" glyph-name="playlist_add_check" d="M918 448.667l64-64-298-300-194 192 64 64 130-128zM86 256.667v84h340v-84h-340zM598 682.667v-86h-512v86h512zM598 512.667v-86h-512v86h512z" />
<glyph unicode="&#xe066;" glyph-name="queue_play_next" d="M1024 170.667l-192-192-64 64 128 128-128 128 64 64zM554 512.667h128v-86h-128v-128h-84v128h-128v86h128v128h84v-128zM896 810.667c46 0 86-38 86-86v-340h-86v340h-768v-512h640v-84h-86v-86h-340v86h-214c-48 0-86 38-86 84v512c0 48 38 86 86 86h768z" />
<glyph unicode="&#xe067;" glyph-name="remove_from_queue" d="M682 512.667v-86h-340v86h340zM896 212.667v512h-768v-512h768zM896 810.667c46 0 86-38 86-86l-2-512c0-46-38-84-84-84h-214v-86h-340v86h-214c-48 0-86 38-86 84v512c0 48 38 86 86 86h768z" />
<glyph unicode="&#xe06d;" glyph-name="featured_play_list" d="M512 640.667v84h-384v-84h384zM512 468.667v86h-384v-86h384zM896 810.667c46 0 86-40 86-86v-596c0-46-40-86-86-86h-768c-46 0-86 40-86 86v596c0 46 40 86 86 86h768z" />
<glyph unicode="&#xe06e;" glyph-name="featured_video" d="M512 426.667v298h-384v-298h384zM896 810.667c46 0 86-40 86-86v-596c0-46-40-86-86-86h-768c-46 0-86 40-86 86v596c0 46 40 86 86 86h768z" />
<glyph unicode="&#xe06f;" glyph-name="note" d="M640 704.667v-236h234zM938 512.667v-342c0-46-38-84-84-84l-684-2c-46 0-84 40-84 86v512c0 46 38 86 84 86h512z" />
<glyph unicode="&#xe070;" glyph-name="video_call" d="M598 384.667v84h-128v128h-86v-128h-128v-84h128v-128h86v128h128zM726 490.667l170 170v-468l-170 170v-150c0-24-20-42-44-42h-512c-24 0-42 18-42 42v428c0 24 18 42 42 42h512c24 0 44-18 44-42v-150z" />
<glyph unicode="&#xe0b2;" glyph-name="call_made" d="M384 724.667h426v-426h-84v282l-496-496-60 60 496 496h-282v84z" />
<glyph unicode="&#xe0b5;" glyph-name="call_received" d="M854 708.667l-496-496h282v-84h-426v426h84v-282l496 496z" />
<glyph unicode="&#xe0b9;" glyph-name="comment" d="M768 596.667v86h-512v-86h512zM768 468.667v86h-512v-86h512zM768 340.667v86h-512v-86h512zM938 768.667v-768l-170 170h-598c-46 0-84 40-84 86v512c0 46 38 84 84 84h684c46 0 84-38 84-84z" />
<glyph unicode="&#xe0ba;" glyph-name="contacts" d="M726 212.667v64c0 72-142 108-214 108s-214-36-214-108v-64h428zM512 650.667c-52 0-96-44-96-96s44-96 96-96 96 44 96 96-44 96-96 96zM854 768.667c46 0 84-40 84-86v-512c0-46-38-86-84-86h-684c-46 0-84 40-84 86v512c0 46 38 86 84 86h684zM170-85.333v86h684v-86h-684zM854 938.667v-86h-684v86h684z" />
<glyph unicode="&#xe0c3;" glyph-name="import_export" d="M682 212.667h128l-170-170-170 170h128v300h84v-300zM384 810.667l170-170h-128v-300h-84v300h-128z" />
<glyph unicode="&#xe0c6;" glyph-name="live_help" d="M642 500.667c24 24 40 58 40 96 0 94-76 172-170 172s-170-78-170-172h84c0 46 40 86 86 86s86-40 86-86c0-24-10-44-26-60l-52-54c-30-32-50-74-50-120v-22h84c0 64 20 90 50 122zM554 170.667v86h-84v-86h84zM810 852.667c46 0 86-38 86-84v-598c0-46-40-86-86-86h-170l-128-128-128 128h-170c-48 0-86 40-86 86v598c0 46 38 84 86 84h596z" />
<glyph unicode="&#xe0c7;" glyph-name="location_off" d="M500 448.667c118.353-116.98 236.568-234.098 354-352l-54-54-144 142c-72-106-144-184-144-184s-298 330-298 554c0 22 4 44 8 66l-136 136 54 54 356-356zM512 660.667c-32 0-58-14-78-36l-138 136c54 56 132 92 216 92 166 0 298-132 298-298 0-72-30-154-72-234l-154 156c22 20 34 46 34 78 0 58-48 106-106 106z" />
<glyph unicode="&#xe0c9;" glyph-name="message" d="M768 596.667v86h-512v-86h512zM768 468.667v86h-512v-86h512zM768 340.667v86h-512v-86h512zM854 852.667c46 0 84-38 84-84v-512c0-46-38-86-84-86h-598l-170-170v768c0 46 38 84 84 84h684z" />
<glyph unicode="&#xe0cf;" glyph-name="contact_phone" d="M762 340.667c-10 26-16 56-16 86s6 60 16 86h70l64 84-84 86c-56-42-98-100-118-170-8-28-12-56-12-86s4-58 12-86c20-68 62-128 118-170l84 86-64 84h-70zM598 170.667v42c0 86-170 132-256 132s-256-46-256-132v-42h512zM342 682.667c-70 0-128-58-128-128s58-128 128-128 128 58 128 128-58 128-128 128zM938 810.667c46 0 86-40 86-86v-596c0-46-40-86-86-86h-852c-46 0-86 40-86 86v596c0 46 40 86 86 86h852z" />
<glyph unicode="&#xe0d0;" glyph-name="contact_mail" d="M938 426.667v256h-340v-256h340zM598 170.667v42c0 86-170 132-256 132s-256-46-256-132v-42h512zM342 682.667c-70 0-128-58-128-128s58-128 128-128 128 58 128 128-58 128-128 128zM938 810.667c46 0 86-40 86-86v-596c0-46-40-86-86-86h-852c-46 0-86 40-86 86v596c0 46 40 86 86 86h852zM896 596.667l-128-84-128 84v44l128-86 128 86v-44z" />
<glyph unicode="&#xe0d5;" glyph-name="stay_primary_landscape" d="M810 640.667h-596v-428h596v428zM44 640.667c0 46 38 84 84 84h768c46 0 86-38 86-84v-428c0-46-40-84-86-84h-768c-46 0-86 38-86 84z" />
<glyph unicode="&#xe0d8;" glyph-name="textsms" d="M726 468.667v86h-86v-86h86zM554 468.667v86h-84v-86h84zM384 468.667v86h-86v-86h86zM854 852.667c46 0 84-38 84-84v-512c0-46-38-86-84-86h-598l-170-170v768c0 46 38 84 84 84h684z" />
<glyph unicode="&#xe0de;" glyph-name="phonelink_setup" d="M810 896.667c46 0 86-40 86-86v-768c0-46-40-86-86-86h-426c-46 0-86 40-86 86v128h86v-86h426v684h-426v-86h-86v128c0 46 40 86 86 86h426zM342 340.667c46 0 84 40 84 86s-38 86-84 86-86-40-86-86 40-86 86-86zM504 404.667l46-38c4-4 8-8 4-12l-42-74c-4-4-8-4-12-4l-56 22c-12-8-26-18-38-22l-10-54c-4-4-8-10-12-10h-86c-4 0-12 6-8 10l-8 54c-12 4-26 14-38 22l-60-18c-4-4-10 2-14 6l-42 72c0 4 0 8 4 16l48 34v44l-48 34c-4 4-8 8-4 12l42 74c4 4 10 4 14 4l54-22c12 8 28 18 40 22l8 54c4 4 8 10 12 10h86c8 0 12-6 12-10l10-54c12-4 26-14 38-22l56 18c4 4 8-2 12-6l42-72c0-4 0-8-4-12l-46-34v-44z" />
<glyph unicode="&#xe0df;" glyph-name="present_to_all" d="M426 426.667h-84l170 170 170-170h-84v-170h-172v170zM896 126.667v600h-768v-600h768zM896 810.667c48 0 86-38 86-86v-596c0-48-38-86-86-86h-768c-48 0-86 38-86 86v596c0 48 38 86 86 86h768z" />
<glyph unicode="&#xe0e0;" glyph-name="import_contacts" d="M896 148.667v492c-46 14-98 20-150 20-72 0-176-28-234-64v-490c58 36 162 64 234 64 52 0 104-8 150-22zM746 746.667c88.409 0 181.498-22.075 236-64v-622c0-10-12-22-22-22-4 0-6 0-10 2-60 32-134 44-204 44-72 0-176-28-234-64-62 46-150 64-234 64-62 0-146-18-204-46-4 0-6-2-10-2-10 0-22 10-22 20v626c62 46 152 64 236 64s172-18 234-64c62 46 150 64 234 64z" />
<glyph unicode="&#xe0e1;" glyph-name="mail_outline" d="M512 468.667l342 214h-684zM854 170.667v426l-342-212-342 212v-426h684zM854 768.667c46 0 84-40 84-86v-512c0-46-38-86-84-86h-684c-46 0-84 40-84 86v512c0 46 38 86 84 86h684z" />
<glyph unicode="&#xe0e2;" glyph-name="screen_share" d="M554 320.667l172 160-172 160v-92c-166-24-232-136-256-250 60 80 138 116 256 116v-94zM854 170.667h170v-86h-1024v86h170c-48 0-84 40-84 86v426c0 48 36 86 84 86h684c46 0 84-38 84-86v-426c0-46-38-86-84-86z" />
<glyph unicode="&#xe0e5;" glyph-name="rss_feed" d="M170 508.667c234 0 424-190 424-424h-122c0 166-136 302-302 302v122zM170 748.667c366 0 664-298 664-664h-120c0 300-244 544-544 544v120zM170 178.667c0 52 42 92 94 92s92-40 92-92-40-94-92-94-94 42-94 94z" />
<glyph unicode="&#xe145;" glyph-name="add" d="M810 384.667h-256v-256h-84v256h-256v84h256v256h84v-256h256v-84z" />
<glyph unicode="&#xe147;" glyph-name="add_circle" d="M726 384.667v84h-172v172h-84v-172h-172v-84h172v-172h84v172h172zM512 852.667c236 0 426-190 426-426s-190-426-426-426-426 190-426 426 190 426 426 426z" />
<glyph unicode="&#xe149;" glyph-name="archive" d="M218 724.667h588l-40 44h-512zM512 192.667l234 234h-148v86h-172v-86h-148zM876 714.667c12-14 20-34 20-54v-532c0-46-40-86-86-86h-596c-46 0-86 40-86 86v532c0 20 8 40 20 54l58 72c12 14 30 24 50 24h512c20 0 38-10 50-24z" />
<glyph unicode="&#xe14b;" glyph-name="block" d="M512 84.667c188 0 342 154 342 342 0 78-26 152-72 210l-480-480c58-46 132-72 210-72zM170 426.667c0-78 26-152 72-210l480 480c-58 46-132 72-210 72-188 0-342-154-342-342zM512 852.667c236 0 426-190 426-426s-190-426-426-426-426 190-426 426 190 426 426 426z" />
<glyph unicode="&#xe14d;" glyph-name="content_copy" d="M810 42.667v598h-468v-598h468zM810 724.667c46 0 86-38 86-84v-598c0-46-40-86-86-86h-468c-46 0-86 40-86 86v598c0 46 40 84 86 84h468zM682 896.667v-86h-512v-598h-84v598c0 46 38 86 84 86h512z" />
<glyph unicode="&#xe14e;" glyph-name="content_cut" d="M810 810.667h128v-42l-298-300-86 86zM512 404.667c12 0 22 10 22 22s-10 22-22 22-22-10-22-22 10-22 22-22zM256 84.667c46 0 86 38 86 86s-40 86-86 86-86-38-86-86 40-86 86-86zM256 596.667c46 0 86 38 86 86s-40 86-86 86-86-38-86-86 40-86 86-86zM412 612.667l526-528v-42h-128l-298 298-100-100c10-22 14-44 14-70 0-94-76-170-170-170s-170 76-170 170 76 170 170 170c26 0 48-4 70-14l100 100-100 100c-22-10-44-14-70-14-94 0-170 76-170 170s76 170 170 170 170-76 170-170c0-26-4-48-14-70z" />
<glyph unicode="&#xe14f;" glyph-name="content_paste" d="M810 84.667v684h-84v-128h-428v128h-84v-684h596zM512 852.667c-24 0-42-18-42-42s18-42 42-42 42 18 42 42-18 42-42 42zM810 852.667c46 0 86-38 86-84v-684c0-46-40-84-86-84h-596c-46 0-86 38-86 84v684c0 46 40 84 86 84h178c18 50 64 86 120 86s102-36 120-86h178z" />
<glyph unicode="&#xe151;" glyph-name="drafts" d="M512 384.667l352 220-352 206-352-206zM938 596.667v-426c0-46-38-86-84-86h-684c-46 0-84 40-84 86v426c0 30 16 60 40 74l386 226 386-226c24-14 40-44 40-74z" />
<glyph unicode="&#xe152;" glyph-name="filter_list" d="M256 384.667v84h512v-84h-512zM128 682.667h768v-86h-768v86zM426 170.667v86h172v-86h-172z" />
<glyph unicode="&#xe153;" glyph-name="flag" d="M614 682.667h240v-426h-300l-16 84h-240v-298h-84v726h384z" />
<glyph unicode="&#xe154;" glyph-name="forward" d="M512 596.667v172l342-342-342-342v172h-342v340h342z" />
<glyph unicode="&#xe155;" glyph-name="drafts2" d="M512 384.667l352 220-352 206-352-206zM938 596.667v-426c0-46-38-86-84-86h-684c-46 0-84 40-84 86v426c0 30 16 60 40 74l386 226 386-226c24-14 40-44 40-74z" />
<glyph unicode="&#xe157;" glyph-name="link" d="M726 640.667c118 0 212-96 212-214s-94-214-212-214h-172v82h172c72 0 132 60 132 132s-60 132-132 132h-172v82h172zM342 384.667v84h340v-84h-340zM166 426.667c0-72 60-132 132-132h172v-82h-172c-118 0-212 96-212 214s94 214 212 214h172v-82h-172c-72 0-132-60-132-132z" />
<glyph unicode="&#xe159;" glyph-name="markunread" d="M854 596.667v86l-342-214-342 214v-86l342-212zM854 768.667c46 0 84-40 84-86v-512c0-46-38-86-84-86h-684c-46 0-84 40-84 86v512c0 46 38 86 84 86h684z" />
<glyph unicode="&#xe15a;" glyph-name="redo" d="M786 486.667l152 154v-384h-384l156 154c-60 50-136 80-220 80-152 0-280-98-324-234l-100 32c58 178 226 308 424 308 114 0 218-42 296-110z" />
<glyph unicode="&#xe15b;" glyph-name="remove" d="M810 384.667h-596v84h596v-84z" />
<glyph unicode="&#xe15c;" glyph-name="remove_circle" d="M726 384.667v84h-428v-84h428zM512 852.667c236 0 426-190 426-426s-190-426-426-426-426 190-426 426 190 426 426 426z" />
<glyph unicode="&#xe15d;" glyph-name="remove_circle_outline" d="M512 84.667c188 0 342 154 342 342s-154 342-342 342-342-154-342-342 154-342 342-342zM512 852.667c236 0 426-190 426-426s-190-426-426-426-426 190-426 426 190 426 426 426zM298 468.667h428v-84h-428v84z" />
<glyph unicode="&#xe15e;" glyph-name="reply" d="M426 554.667c298-42 428-256 470-470-106 150-256 218-470 218v-174l-298 298 298 298v-170z" />
<glyph unicode="&#xe15f;" glyph-name="reply_all" d="M554 554.667c298-42 428-256 470-470-106 150-256 218-470 218v-174l-298 298 298 298v-170zM298 596.667l-170-170 170-170v-128l-298 298 298 298v-128z" />
<glyph unicode="&#xe160;" glyph-name="report" d="M554 384.667v256h-84v-256h84zM512 200.667c30 0 56 26 56 56s-26 54-56 54-56-24-56-54 26-56 56-56zM672 810.667l224-224v-320l-224-224h-320l-224 224v320l224 224h320z" />
<glyph unicode="&#xe161;" glyph-name="save" d="M640 554.667v170h-426v-170h426zM512 128.667c70 0 128 58 128 128s-58 128-128 128-128-58-128-128 58-128 128-128zM726 810.667l170-170v-512c0-46-40-86-86-86h-596c-48 0-86 40-86 86v596c0 46 38 86 86 86h512z" />
<glyph unicode="&#xe162;" glyph-name="markunread2" d="M854 596.667v86l-342-214-342 214v-86l342-212zM854 768.667c46 0 84-40 84-86v-512c0-46-38-86-84-86h-684c-46 0-84 40-84 86v512c0 46 38 86 84 86h684z" />
<glyph unicode="&#xe163;" glyph-name="send" d="M86 42.667v298l640 86-640 86v298l896-384z" />
<glyph unicode="&#xe166;" glyph-name="undo" d="M534 596.667c198 0 364-130 424-308l-100-32c-44 136-172 234-324 234-84 0-160-30-220-80l156-154h-384v384l152-154c78 68 182 110 296 110z" />
<glyph unicode="&#xe167;" glyph-name="font_download" d="M680 148.667h90l-218 556h-80l-218-556h90l48 128h240zM854 852.667c46 0 84-38 84-84v-684c0-46-38-84-84-84h-684c-46 0-84 38-84 84v684c0 46 38 84 84 84h684zM424 362.667l88 236 88-236h-176z" />
<glyph unicode="&#xe16a;" glyph-name="next_week" d="M470 148.667l170 172-170 170-44-42 128-128-128-128zM426 724.667v-84h172v84h-172zM598 810.667c46.645 0 84-38.997 84-86v-84h172c46 0 84-40 84-86v-470c0-46-38-84-84-84h-684c-46 0-84 38-84 84v470c0 46 38 86 84 86h172v84c0 46 38 86 84 86h172z" />
<glyph unicode="&#xe16d;" glyph-name="low_priority" d="M86 448.667c0 152 124 276 276 276h150v-84h-150c-106 0-192-86-192-192s86-192 192-192h22v84l128-128-128-128v86h-22c-152 0-276 126-276 278zM598 256.667h340v-86h-340v86zM598 490.667h340v-86h-340v86zM598 724.667h340v-84h-340v84z" />
<glyph unicode="&#xe191;" glyph-name="access_alarms" d="M512 84.667c166 0 298 134 298 300s-132 298-298 298-298-132-298-298 132-300 298-300zM512 768.667c214 0 384-170 384-384s-170-384-384-384-384 170-384 384 170 384 384 384zM534 596.667v-226l170-102-34-52-200 124v256h64zM338 792.667l-198-162-54 64 196 162zM938 694.667l-54-64-198 168 56 64z" />
<glyph unicode="&#xe1af;" glyph-name="data_usage" d="M512 128.667c94 0 178 44 232 112l112-66c-78-106-202-174-344-174-236 0-426 190-426 426 0 222 168 402 384 424v-128c-144-20-256-146-256-296 0-166 132-298 298-298zM554 850.667c216-22 384-202 384-424 0-62-12-122-36-174l-112 66c12 34 20 70 20 108 0 150-112 276-256 296v128z" />
<glyph unicode="&#xe1b0;" glyph-name="developer_mode" d="M726 128.667v84h84v-170c0-46-38-86-84-86h-428c-46 0-84 40-84 86v170h84v-84h428zM426 290.667l-60-60-196 196 196 196 60-60-134-136zM658 230.667l-60 60 134 136-134 136 60 60 196-196zM298 724.667v-84h-84v170c0 46 38 86 84 86l428-2c46 0 84-38 84-84v-170h-84v84h-428z" />
<glyph unicode="&#xe1b2;" glyph-name="dvr" d="M298 426.667v-86h-84v86h84zM298 596.667v-84h-84v84h84zM810 426.667v-86h-468v86h468zM810 596.667v-84h-468v84h468zM896 212.667v512h-768v-512h768zM896 810.667c46 0 86-40 86-86l-2-512c0-46-38-84-84-84h-214v-86h-340v86h-214c-46 0-86 38-86 84v512c0 46 40 86 86 86h768z" />
<glyph unicode="&#xe1b6;" glyph-name="location_disabled" d="M694 190.667l-418 418c-38-50-62-114-62-182 0-166 132-298 298-298 68 0 132 24 182 62zM128 756.667l54 54 714-714-54-54-88 88c-56-46-124-78-200-86v-88h-84v88c-178 20-320 162-340 340h-88v84h88c8 76 40 144 86 200zM894 468.667h88v-84h-88c-6-48-20-96-42-136l-64 64c14 34 22 74 22 114 0 166-132 298-298 298-40 0-80-8-114-22l-64 64c42 22 88 36 136 42v88h84v-88c178-20 320-162 340-340z" />
<glyph unicode="&#xe1b7;" glyph-name="location_searching" d="M512 128.667c166 0 298 132 298 298s-132 298-298 298-298-132-298-298 132-298 298-298zM894 468.667h88v-84h-88c-20-178-162-320-340-340v-88h-84v88c-178 20-320 162-340 340h-88v84h88c20 178 162 320 340 340v88h84v-88c178-20 320-162 340-340z" />
<glyph unicode="&#xe1bc;" glyph-name="wallpaper" d="M170 384.667v-300h300v-84h-300c-46 0-84 38-84 84v300h84zM854 84.667v300h84v-300c0-46-38-84-84-84h-300v84h300zM854 852.667c46 0 84-38 84-84v-300h-84v300h-300v84h300zM726 576.667c0-36-28-64-64-64s-64 28-64 64 28 64 64 64 64-28 64-64zM426 384.667l128-158 86 114 128-170h-512zM170 768.667v-300h-84v300c0 46 38 84 84 84h300v-84h-300z" />
<glyph unicode="&#xe1be;" glyph-name="screen_lock_landscape" d="M460 512.667v-44h104v44c0 28-24 50-52 50s-52-22-52-50zM426 256.667c-24 0-42 18-42 42v128c0 24 18 42 42 42v44c0 46 38 84 86 84 46 0 86-36 86-84v-44c24 0 42-18 42-42v-128c0-24-18-42-42-42h-172zM810 212.667v428h-596v-428h596zM896 724.667c46 0 86-38 86-84v-428c0-46-40-84-86-84h-768c-46 0-86 38-86 84v428c0 46 40 84 86 84h768z" />
<glyph unicode="&#xe1bf;" glyph-name="screen_lock_portrait" d="M726 128.667v596h-428v-596h428zM726 896.667c46 0 84-40 84-86v-768c0-46-38-86-84-86h-428c-46 0-84 40-84 86v768c0 46 38 86 84 86h428zM460 512.667v-44h104v44c0 28-24 50-52 50s-52-22-52-50zM426 256.667c-24 0-42 18-42 42v128c0 24 18 42 42 42v44c0 46 38 84 86 84 46 0 86-36 86-84v-44c24 0 42-18 42-42v-128c0-24-18-42-42-42h-172z" />
<glyph unicode="&#xe1c0;" glyph-name="screen_lock_rotation" d="M716 832.667v-22h146v22c0 40-32 72-72 72s-74-32-74-72zM682 554.667c-24 0-42 18-42 42v172c0 24 18 42 42 42v22c0 58 50 106 108 106s106-48 106-106v-22c24 0 42-18 42-42v-172c0-24-18-42-42-42h-214zM362 64.667l56 56 162-162-28-2c-268 0-488 208-510 470h64c16-160 116-296 256-362zM992 394.667c26-24 26-66 0-92l-272-270c-24-26-64-26-90 0l-512 512c-26 24-26 64 0 90l270 272c24 26 66 26 92 0l104-104-60-60-90 88-242-240 484-484 240 242-94 94 60 60z" />
<glyph unicode="&#xe1c1;" glyph-name="screen_rotation" d="M320 22.667l58 56 162-162-28-2c-268 0-488 208-510 470h64c16-160 114-296 254-362zM632 34.667l272 272-512 512-272-272zM436 864.667l514-514c26-24 26-64 0-90l-272-272c-24-26-64-26-90 0l-514 514c-26 24-26 64 0 90l272 272c24 26 64 26 90 0zM704 830.667l-58-56-162 162 28 2c268 0 488-208 510-470h-64c-16 160-114 296-254 362z" />
<glyph unicode="&#xe1ce;" glyph-name="signal_cellular_no_sim" d="M156 772.667l746-744-56-56-80 82c-12-6-26-12-40-12h-428c-46 0-84 40-84 86v478l-112 112zM810 724.667v-498l-484 484 100 100h300c46 0 84-40 84-86z" />
<glyph unicode="&#xe1db;" glyph-name="storage" d="M170 468.667v-84h86v84h-86zM86 340.667v172h852v-172h-852zM256 640.667v84h-86v-84h86zM86 768.667h852v-172h-852v172zM170 212.667v-84h86v84h-86zM86 84.667v172h852v-172h-852z" />
<glyph unicode="&#xe227;" glyph-name="attach_money" d="M504 472.667c96-26 200-64 200-186 0-88-66-136-150-152v-92h-128v92c-82 18-150 70-156 164h94c4-50 38-90 126-90 94 0 116 46 116 76 0 40-22 78-128 104-120 28-200 78-200 176 0 82 66 136 148 154v92h128v-94c90-22 136-88 138-162h-94c-2 54-32 90-108 90-72 0-114-34-114-80 0-40 32-66 128-92z" />
<glyph unicode="&#xe243;" glyph-name="format_paint" d="M768 768.667h128v-342h-342v-384c0-24-18-42-42-42h-86c-24 0-42 18-42 42v470h426v170h-42v-42c0-24-18-44-42-44h-512c-24 0-44 20-44 44v170c0 24 20 42 44 42h512c24 0 42-18 42-42v-42z" />
<glyph unicode="&#xe244;" glyph-name="format_quote" d="M598 212.667l84 172h-128v256h256v-256l-84-172h-128zM256 212.667l86 172h-128v256h256v-256l-86-172h-128z" />
<glyph unicode="&#xe24c;" glyph-name="insert_comment" d="M768 596.667v86h-512v-86h512zM768 468.667v86h-512v-86h512zM768 340.667v86h-512v-86h512zM854 852.667c46 0 84-38 84-84v-768l-170 170h-598c-46 0-84 40-84 86v512c0 46 38 84 84 84h684z" />
<glyph unicode="&#xe24d;" glyph-name="insert_drive_file" d="M554 554.667h236l-236 234v-234zM256 852.667h342l256-256v-512c0-46-40-84-86-84h-512c-46 0-86 38-86 84l2 684c0 46 38 84 84 84z" />
<glyph unicode="&#xe24f;" glyph-name="insert_invitation" d="M810 128.667v468h-596v-468h596zM682 896.667h86v-86h42c46 0 86-40 86-86v-596c0-46-40-86-86-86h-596c-48 0-86 40-86 86v596c0 46 38 86 86 86h42v86h86v-86h340v86zM726 426.667v-214h-214v214h214z" />
<glyph unicode="&#xe254;" glyph-name="mode_edit" d="M884 638.667l-78-78-160 160 78 78c16 16 44 16 60 0l100-100c16-16 16-44 0-60zM128 202.667l472 472 160-160-472-472h-160v160z" />
<glyph unicode="&#xe255;" glyph-name="publish" d="M214 340.667l298 300 298-300h-170v-256h-256v256h-170zM214 768.667h596v-86h-596v86z" />
<glyph unicode="&#xe258;" glyph-name="vertical_align_bottom" d="M170 128.667h684v-86h-684v86zM682 384.667l-170-172-170 172h128v426h84v-426h128z" />
<glyph unicode="&#xe259;" glyph-name="vertical_align_center" d="M170 468.667h684v-84h-684v84zM682 724.667l-170-170-170 170h128v172h84v-172h128zM342 128.667l170 170 170-170h-128v-172h-84v172h-128z" />
<glyph unicode="&#xe25a;" glyph-name="vertical_align_top" d="M170 810.667h684v-86h-684v86zM342 468.667l170 172 170-172h-128v-426h-84v426h-128z" />
<glyph unicode="&#xe25b;" glyph-name="wrap_text" d="M726 468.667c94 0 170-76 170-170s-76-170-170-170h-86v-86l-128 128 128 128v-86h96c46 0 86 40 86 86s-40 86-86 86h-566v84h556zM854 724.667v-84h-684v84h684zM170 128.667v84h256v-84h-256z" />
<glyph unicode="&#xe263;" glyph-name="monetization_on" d="M572 166.667c74 14 134 56 134 134 0 108-94 146-180 168s-112 46-112 82c0 40 38 70 102 70 68 0 92-32 94-80h84c-2 66-42 124-122 144v84h-114v-84c-74-16-132-62-132-136 0-88 72-130 178-156 96-22 114-56 114-92 0-26-18-68-102-68-78 0-110 36-114 80h-84c4-82 68-128 140-144v-84h114v82zM512 852.667c236 0 426-190 426-426s-190-426-426-426-426 190-426 426 190 426 426 426z" />
<glyph unicode="&#xe264;" glyph-name="title" d="M214 768.667h596v-128h-234v-512h-128v512h-234v128z" />
<glyph unicode="&#xe2c6;" glyph-name="file_upload" d="M214 170.667h596v-86h-596v86zM384 256.667v256h-170l298 298 298-298h-170v-256h-256z" />
<glyph unicode="&#xe2c7;" glyph-name="folder" d="M426 768.667l86-86h342c46 0 84-40 84-86v-426c0-46-38-86-84-86h-684c-46 0-84 40-84 86v512c0 46 38 86 84 86h256z" />
<glyph unicode="&#xe2c8;" glyph-name="folder_open" d="M854 170.667v426h-684v-426h684zM854 682.667c46 0 84-40 84-86v-426c0-46-38-86-84-86h-684c-46 0-84 40-84 86v512c0 46 38 86 84 86h256l86-86h342z" />
<glyph unicode="&#xe2c9;" glyph-name="folder_shared" d="M810 212.667v44c0 56-114 84-170 84s-170-28-170-84v-44h340zM640 554.667c-46 0-86-40-86-86s40-84 86-84 86 38 86 84-40 86-86 86zM854 682.667c46 0 84-40 84-86v-426c0-46-38-86-84-86h-684c-46 0-84 40-84 86v512c0 46 38 86 84 86h256l86-86h342z" />
<glyph unicode="&#xe2cc;" glyph-name="create_new_folder" d="M810 340.667v86h-128v128h-84v-128h-128v-86h128v-128h84v128h128zM854 682.667c48 0 84-38 84-86v-426c0-48-36-86-84-86h-684c-48 0-84 38-84 86v512c0 48 36 86 84 86h256l86-86h342z" />
<glyph unicode="&#xe30b;" glyph-name="desktop_mac" d="M896 340.667v428h-768v-428h768zM896 852.667c46 0 86-38 86-84v-512c0-46-40-86-86-86h-298l84-128v-42h-340v42l84 128h-298c-46 0-86 40-86 86v512c0 46 40 84 86 84h768z" />
<glyph unicode="&#xe30c;" glyph-name="desktop_windows" d="M896 256.667v512h-768v-512h768zM896 852.667c46 0 86-38 86-84v-512c0-46-40-86-86-86h-298v-86h84v-84h-340v84h84v86h-298c-46 0-86 40-86 86v512c0 46 40 84 86 84h768z" />
<glyph unicode="&#xe313;" glyph-name="keyboard_arrow_down" d="M316 604.667l196-196 196 196 60-60-256-256-256 256z" />
<glyph unicode="&#xe314;" glyph-name="keyboard_arrow_left" d="M658 252.667l-60-60-256 256 256 256 60-60-196-196z" />
<glyph unicode="&#xe315;" glyph-name="keyboard_arrow_right" d="M366 240.667l196 196-196 196 60 60 256-256-256-256z" />
<glyph unicode="&#xe316;" glyph-name="keyboard_arrow_up" d="M316 280.667l-60 60 256 256 256-256-60-60-196 196z" />
<glyph unicode="&#xe317;" glyph-name="keyboard_backspace" d="M896 468.667v-84h-604l152-154-60-60-256 256 256 256 60-60-152-154h604z" />
<glyph unicode="&#xe318;" glyph-name="keyboard_capslock" d="M256 170.667v86h512v-86h-512zM512 580.667l-196-196-60 60 256 256 256-256-60-60z" />
<glyph unicode="&#xe31b;" glyph-name="keyboard_return" d="M810 640.667h86v-256h-648l154-154-60-60-256 256 256 256 60-60-154-154h562v172z" />
<glyph unicode="&#xe31c;" glyph-name="keyboard_tab" d="M854 682.667h84v-512h-84v512zM494 622.667l60 60 256-256-256-256-60 60 154 154h-606v84h606z" />
<glyph unicode="&#xe31d;" glyph-name="keyboard_voice" d="M738 426.667h72c0-146-116-266-256-286v-140h-84v140c-140 20-256 140-256 286h72c0-128 108-218 226-218s226 90 226 218zM512 298.667c-70 0-128 58-128 128v256c0 70 58 128 128 128s128-58 128-128v-256c0-70-58-128-128-128z" />
<glyph unicode="&#xe31e;" glyph-name="laptop" d="M170 682.667v-426h684v426h-684zM854 170.667h170v-86h-1024v86h170c-46 0-84 40-84 86v426c0 46 38 86 84 86h684c46 0 84-40 84-86v-426c0-46-38-86-84-86z" />
<glyph unicode="&#xe31f;" glyph-name="laptop_chromebook" d="M854 298.667v426h-684v-426h684zM598 170.667v42h-172v-42h172zM938 170.667h86v-86h-1024v86h86v640h852v-640z" />
<glyph unicode="&#xe320;" glyph-name="laptop_mac" d="M512 128.667c24 0 42 18 42 42s-18 42-42 42-42-18-42-42 18-42 42-42zM170 724.667v-468h684v468h-684zM854 170.667h170c0-46-40-86-86-86h-852c-46 0-86 40-86 86h170c-46 0-84 40-84 86v468c0 46 38 86 84 86h684c46 0 84-40 84-86v-468c0-46-38-86-84-86z" />
<glyph unicode="&#xe321;" glyph-name="laptop_windows" d="M170 724.667v-426h684v426h-684zM854 170.667h170v-86h-1024v86h170v42c-46 0-84 40-84 86v426c0 46 38 86 84 86h684c46 0 84-40 84-86v-426c0-46-38-86-84-86v-42z" />
<glyph unicode="&#xe322;" glyph-name="memory" d="M726 212.667v428h-428v-428h428zM896 468.667h-86v-84h86v-86h-86v-86c0-46-38-84-84-84h-86v-86h-86v86h-84v-86h-86v86h-86c-46 0-84 38-84 84v86h-86v86h86v84h-86v86h86v86c0 46 38 84 84 84h86v86h86v-86h84v86h86v-86h86c46 0 84-38 84-84v-86h86v-86zM554 384.667v84h-84v-84h84zM640 554.667v-256h-256v256h256z" />
<glyph unicode="&#xe324;" glyph-name="phone_android" d="M736 170.667v598h-448v-598h448zM598 42.667v42h-172v-42h172zM682 896.667c70 0 128-58 128-128v-684c0-70-58-128-128-128h-340c-70 0-128 58-128 128v684c0 70 58 128 128 128h340z" />
<glyph unicode="&#xe326;" glyph-name="phonelink" d="M938 212.667v300h-170v-300h170zM982 596.667c24 0 42-18 42-42v-426c0-24-18-44-42-44h-256c-24 0-44 20-44 44v426c0 24 20 42 44 42h256zM170 682.667v-470h428v-128h-598v128h86v470c0 46 38 86 84 86h768v-86h-768z" />
<glyph unicode="&#xe327;" glyph-name="phonelink_off" d="M982 596.667c24 0 42-18 42-42v-426c0-24-18-44-42-44h-8l-128 128h92v300h-170v-222l-86 86v178c0 24 20 42 44 42h256zM170 670.667v-458h458zM82 868.667c276.214-276.452 551.97-553.364 828-830l-54-54-100 100h-756v128h86v470c0 20 8 40 20 54l-78 78zM938 682.667h-562l-86 86h648v-86z" />
<glyph unicode="&#xe328;" glyph-name="router" d="M640 170.667v86h-86v-86h86zM490 170.667v86h-84v-86h84zM342 170.667v86h-86v-86h86zM810 384.667c46 0 86-40 86-86v-170c0-46-40-86-86-86h-596c-46 0-86 40-86 86v170c0 46 40 86 86 86h426v170h86v-170h84zM824 652.667l-34-34c-30 30-70 42-108 42s-76-12-106-42l-34 34c38 38 88 60 140 60s104-22 142-60zM862 686.667c-52 46-116 72-180 72s-126-26-178-72l-34 34c60 60 136 90 212 90s154-30 214-90z" />
<glyph unicode="&#xe329;" glyph-name="scanner" d="M810 212.667v86h-426v-86h426zM298 212.667v86h-84v-86h84zM844 482.667c30-8 52-44 52-78v-234c0-46-40-86-86-86h-596c-46 0-86 40-86 86v170c0 46 40 86 86 86h536l-600 218 30 80z" />
<glyph unicode="&#xe32a;" glyph-name="security" d="M512 896.667l384-172v-256c0-236-164-458-384-512-220 54-384 276-384 512v256zM512 426.667v-382c158 50 276 206 298 382h-298zM512 426.667v376l-298-132v-244h298z" />
<glyph unicode="&#xe32f;" glyph-name="tablet" d="M810 170.667v512h-596v-512h596zM896 768.667c46 0 86-40 86-86l-2-512c0-46-38-86-84-86h-768c-46 0-86 40-86 86v512c0 46 40 86 86 86h768z" />
<glyph unicode="&#xe330;" glyph-name="tablet_android" d="M822 128.667v682h-620v-682h620zM598 0.667v42h-172v-42h172zM768 938.667c70 0 128-58 128-128v-768c0-70-58-128-128-128h-512c-70 0-128 58-128 128v768c0 70 58 128 128 128h512z" />
<glyph unicode="&#xe331;" glyph-name="tablet_mac" d="M810 128.667v682h-640v-682h640zM490-43.333c36 0 64 28 64 64s-28 64-64 64-64-28-64-64 28-64 64-64zM790 938.667c58 0 106-48 106-106v-812c0-58-48-106-106-106h-598c-58 0-106 48-106 106v812c0 58 48 106 106 106h598z" />
<glyph unicode="&#xe333;" glyph-name="tv" d="M896 212.667v512h-768v-512h768zM896 810.667c46 0 86-40 86-86l-2-512c0-46-38-84-84-84h-214v-86h-340v86h-214c-46 0-86 38-86 84v512c0 46 40 86 86 86h768z" />
<glyph unicode="&#xe336;" glyph-name="power_input" d="M682 298.667v86h214v-86h-214zM384 298.667v86h214v-86h-214zM86 298.667v86h212v-86h-212zM86 554.667h810v-86h-810v86z" />
<glyph unicode="&#xe337;" glyph-name="devices_other" d="M896 170.667v342h-170v-342h170zM938 596.667c22 0 44-20 44-42v-426c0-22-22-44-44-44h-256c-22 0-42 22-42 44v426c0 22 20 42 42 42h256zM470 192.667c36 0 64 28 64 64s-28 64-64 64-64-28-64-64 28-64 64-64zM554 426.667v-76c26-24 44-56 44-94s-18-72-44-96v-76h-170v76c-26 24-42 58-42 96s16 70 42 94v76h170zM128 682.667v-512h170v-86h-170c-46 0-86 40-86 86v512c0 46 40 86 86 86h768v-86h-768z" />
<glyph unicode="&#xe39e;" glyph-name="adjust" d="M640 426.667c0-70-58-128-128-128s-128 58-128 128 58 128 128 128 128-58 128-128zM512 84.667c188 0 342 154 342 342s-154 342-342 342-342-154-342-342 154-342 342-342zM512 852.667c236 0 426-190 426-426s-190-426-426-426-426 190-426 426 190 426 426 426z" />
<glyph unicode="&#xe3af;" glyph-name="camera" d="M420 10.667c68.709 118.625 136.494 238.172 206 356l156-270c-74-60-168-96-270-96-32 0-62 4-92 10zM104 298.667h414l-158-270c-122 46-216 146-256 270zM198 714.667c71.999-124.667 143.587-249.746 216-374h-320c-6 28-8 56-8 86 0 112 42 212 112 288zM930 512.667c6-28 8-56 8-86 0-112-42-212-112-288l-204 352-12 22h320zM920 554.667h-414l158 270c122-46 216-146 256-270zM402 490.667l-4-4-156 270c74 60 168 96 270 96 32 0 62-4 92-10z" />
<glyph unicode="&#xe3b3;" glyph-name="camera_roll" d="M854 554.667v86h-86v-86h86zM854 170.667v86h-86v-86h86zM682 554.667v86h-84v-86h84zM682 170.667v86h-84v-86h84zM512 554.667v86h-86v-86h86zM512 170.667v86h-86v-86h86zM598 724.667h340v-640h-340c0-46-40-84-86-84h-342c-46 0-84 38-84 84v640c0 46 38 86 84 86h44v42c0 24 18 44 42 44h170c24 0 44-20 44-44v-42h42c46 0 86-40 86-86z" />
<glyph unicode="&#xe3ba;" glyph-name="control_point" d="M512 84.667c188 0 342 154 342 342s-154 342-342 342-342-154-342-342 154-342 342-342zM512 852.667c236 0 426-190 426-426s-190-426-426-426-426 190-426 426 190 426 426 426zM554 640.667v-172h172v-84h-172v-172h-84v172h-172v84h172v172h84z" />
<glyph unicode="&#xe3c2;" glyph-name="crop_free" d="M810 810.667c46 0 86-40 86-86v-170h-86v170h-170v86h170zM810 128.667v170h86v-170c0-46-40-86-86-86h-170v86h170zM214 298.667v-170h170v-86h-170c-46 0-86 40-86 86v170h86zM128 724.667c0 46 40 86 86 86h170v-86h-170v-170h-86v170z" />
<glyph unicode="&#xe3c4;" glyph-name="crop_original" d="M596 414.667l150-202h-468l116 152 84-102zM810 128.667v596h-596v-596h596zM810 810.667c46 0 86-40 86-86v-596c0-46-40-86-86-86h-596c-46 0-86 40-86 86v596c0 46 40 86 86 86h596z" />
<glyph unicode="&#xe3c7;" glyph-name="dehaze" d="M86 704.667h852v-86h-852v86zM86 490.667h852v-86h-852v86zM86 276.667h852v-84h-852v84z" />
<glyph unicode="&#xe3c8;" glyph-name="details" d="M272 682.667l240-426 240 426h-480zM128 768.667h768l-384-684z" />
<glyph unicode="&#xe3d3;" glyph-name="filter" d="M896 212.667v598h-598v-598h598zM896 896.667c46 0 86-40 86-86v-598c0-46-40-84-86-84h-598c-46 0-84 38-84 84v598c0 46 38 86 84 86h598zM128 724.667v-682h682v-86h-682c-46 0-86 40-86 86v682h86zM680 498.667l152-200h-470l118 150 84-100z" />
<glyph unicode="&#xe3dd;" glyph-name="filter_drama" d="M810 170.667c70 0 128 58 128 128s-58 128-128 128h-64v22c0 130-104 234-234 234-76 0-144-36-188-94 108-30 188-130 188-248h-86c0 94-76 172-170 172s-170-78-170-172 76-170 170-170h554zM826 510.667c110-8 198-100 198-212 0-118-96-214-214-214h-554c-142 0-256 114-256 256 0 132 100 240 228 254 54 102 160 174 284 174 156 0 284-110 314-258z" />
<glyph unicode="&#xe3de;" glyph-name="filter_frames" d="M768 596.667h-512v-426h512zM854 84.667v598h-192l-148 150-150-150h-194v-598h684zM854 768.667c46 0 84-40 84-86v-598c0-46-38-84-84-84h-684c-46 0-84 38-84 84v598c0 46 38 86 84 86h172l170 170 170-170h172z" />
<glyph unicode="&#xe3e0;" glyph-name="filter_none" d="M896 212.667v598h-598v-598h598zM896 896.667c46 0 86-40 86-86v-598c0-46-40-84-86-84h-598c-46 0-84 38-84 84v598c0 46 38 86 84 86h598zM128 724.667v-682h682v-86h-682c-46 0-86 40-86 86v682h86z" />
<glyph unicode="&#xe3e7;" glyph-name="flash_on" d="M298 852.667h428l-172-340h172l-300-512v384h-128v468z" />
<glyph unicode="&#xe3ea;" glyph-name="grain" d="M426 768.667c46 0 86-40 86-86s-40-86-86-86-84 40-84 86 38 86 84 86zM598 596.667c46 0 84-38 84-84s-38-86-84-86-86 40-86 86 40 84 86 84zM768 426.667c46 0 86-40 86-86s-40-84-86-84-86 38-86 84 40 86 86 86zM598 256.667c46 0 84-40 84-86s-38-86-84-86-86 40-86 86 40 86 86 86zM768 596.667c-46 0-86 40-86 86s40 86 86 86 86-40 86-86-40-86-86-86zM256 256.667c46 0 86-40 86-86s-40-86-86-86-86 40-86 86 40 86 86 86zM256 596.667c46 0 86-38 86-84s-40-86-86-86-86 40-86 86 40 84 86 84zM426 426.667c46 0 86-40 86-86s-40-84-86-84-84 38-84 84 38 86 84 86z" />
<glyph unicode="&#xe3ec;" glyph-name="grid_on" d="M854 596.667v172h-172v-172h172zM854 340.667v172h-172v-172h172zM854 84.667v172h-172v-172h172zM598 596.667v172h-172v-172h172zM598 340.667v172h-172v-172h172zM598 84.667v172h-172v-172h172zM342 596.667v172h-172v-172h172zM342 340.667v172h-172v-172h172zM342 84.667v172h-172v-172h172zM854 852.667c46 0 84-38 84-84v-684c0-46-38-84-84-84h-684c-46 0-84 38-84 84v684c0 46 38 84 84 84h684z" />
<glyph unicode="&#xe3fa;" glyph-name="lens" d="M512 852.667c236 0 426-190 426-426s-190-426-426-426-426 190-426 426 190 426 426 426z" />
<glyph unicode="&#xe404;" glyph-name="movie_creation" d="M768 768.667h170v-598c0-46-38-86-84-86h-684c-46 0-84 40-84 86v512c0 46 38 86 84 86h44l84-172h128l-84 172h84l86-172h128l-86 172h86l86-172h128z" />
<glyph unicode="&#xe408;" glyph-name="navigate_before" d="M658 622.667l-196-196 196-196-60-60-256 256 256 256z" />
<glyph unicode="&#xe409;" glyph-name="navigate_next" d="M426 682.667l256-256-256-256-60 60 196 196-196 196z" />
<glyph unicode="&#xe40b;" glyph-name="panorama" d="M362 404.667l-148-192h596l-192 256-148-192zM982 170.667c0-46-40-86-86-86h-768c-46 0-86 40-86 86v512c0 46 40 86 86 86h768c46 0 86-40 86-86v-512z" />
<glyph unicode="&#xe40d;" glyph-name="panorama_horizontal" d="M914 768.667c14 0 24-10 24-28v-628c0-18-10-28-24-28-4 0-8 2-12 4-126 46-258 70-390 70s-264-24-390-70c-4-2-8-4-12-4-14 0-24 12-24 28v628c0 18 10 28 24 28 4 0 8-2 12-4 126-46 258-70 390-70s264 24 390 70c4 2 8 4 12 4zM854 658.667c-110-34-226-48-342-48s-232 16-342 48v-464c110 32 226 48 342 48s232-16 342-48v464z" />
<glyph unicode="&#xe40e;" glyph-name="panorama_vertical" d="M280 84.667h464c-32 110-48 226-48 342s16 232 48 342h-464c32-110 48-226 48-342s-16-232-48-342zM850 36.667c2-4 4-8 4-12 0-14-12-24-28-24h-628c-18 0-28 10-28 24 0 4 2 8 4 12 46 126 70 258 70 390s-24 264-70 390c-2 4-4 8-4 12 0 14 10 24 28 24h628c18 0 28-10 28-24 0-4-2-8-4-12-46-126-70-258-70-390s24-264 70-390z" />
<glyph unicode="&#xe40f;" glyph-name="panorama_wide_angle" d="M512 768.667c116 0 224-12 340-32l38-6 12-38c24-88 36-178 36-266s-12-178-36-266l-12-38-38-6c-116-20-224-32-340-32s-224 12-340 32l-38 6-12 38c-24 88-36 178-36 266s12 178 36 266l12 38 38 6c116 20 224 32 340 32zM512 682.667c-104 0-202-10-312-28-20-76-30-152-30-228s10-152 30-228c110-18 208-28 312-28s202 10 312 28c20 76 30 152 30 228s-10 152-30 228c-110 18-208 28-312 28z" />
<glyph unicode="&#xe410;" glyph-name="photo" d="M362 362.667l-148-192h596l-192 256-148-192zM896 128.667c0-46-40-86-86-86h-596c-46 0-86 40-86 86v596c0 46 40 86 86 86h596c46 0 86-40 86-86v-596z" />
<glyph unicode="&#xe412;" glyph-name="photo_camera" d="M512 212.667c118 0 214 96 214 214s-96 214-214 214-214-96-214-214 96-214 214-214zM384 852.667h256l78-84h136c46 0 84-40 84-86v-512c0-46-38-86-84-86h-684c-46 0-84 40-84 86v512c0 46 38 86 84 86h136zM376 426.667c0 76 60 136 136 136s136-60 136-136-60-136-136-136-136 60-136 136z" />
<glyph unicode="&#xe416;" glyph-name="portrait" d="M810 128.667v596h-596v-596h596zM810 810.667c46 0 86-40 86-86v-596c0-46-40-86-86-86h-596c-46 0-86 40-86 86v596c0 46 40 86 86 86h596zM704 244.667v-32h-384v32c0 64 128 96 192 96s192-32 192-96zM512 416.667c-52 0-96 44-96 96s44 96 96 96 96-44 96-96-44-96-96-96z" />
<glyph unicode="&#xe41b;" glyph-name="slideshow" d="M810 128.667v596h-596v-596h596zM810 810.667c46 0 86-40 86-86v-596c0-46-40-86-86-86h-596c-46 0-86 40-86 86v596c0 46 40 86 86 86h596zM426 596.667l214-170-214-170v340z" />
<glyph unicode="&#xe41d;" glyph-name="style" d="M250 96.667v270l148-356h-62c-46 0-86 40-86 86zM336 564.667c24 0 42 20 42 44s-18 42-42 42-42-18-42-42 18-44 42-44zM940 258.667c18-44-2-94-46-112l-314-130c-10-4-22-6-34-6-34 0-64 20-78 52l-212 512c-4 12-6 22-6 34 0 32 20 62 52 76l316 130c12 4 22 6 34 6 32 0 62-20 76-52zM108 100.667c-44 18-64 66-46 110l104 250v-384z" />
<glyph unicode="&#xe425;" glyph-name="timer" d="M512 84.667c166 0 298 134 298 300s-132 298-298 298-298-132-298-298 132-300 298-300zM812 622.667c52-66 84-148 84-238 0-212-172-384-384-384s-384 172-384 384 172 384 384 384c90 0 174-34 240-86l60 62c22-18 42-38 60-60zM470 340.667v256h84v-256h-84zM640 896.667v-86h-256v86h256z" />
<glyph unicode="&#xe429;" glyph-name="tune" d="M640 554.667v256h86v-86h170v-84h-170v-86h-86zM896 384.667h-426v84h426v-84zM298 554.667h86v-256h-86v86h-170v84h170v86zM554 42.667h-84v256h84v-86h342v-84h-342v-86zM128 724.667h426v-84h-426v84zM128 212.667h256v-84h-256v84z" />
<glyph unicode="&#xe42e;" glyph-name="wb_incandescent" d="M736 164.667l60 58 76-76-60-60zM854 490.667h128v-86h-128v86zM640 668.667c76-44 128-126 128-220 0-142-114-256-256-256s-256 114-256 256c0 94 52 176 128 220v206h256v-206zM170 490.667v-86h-128v86h128zM470-19.333v126h84v-126h-84zM152 146.667l76 78 60-60-76-78z" />
<glyph unicode="&#xe430;" glyph-name="wb_sunny" d="M152 146.667l76 78 60-60-76-78zM470-19.333v126h84v-126h-84zM512 704.667c142 0 256-114 256-256s-114-256-256-256-256 114-256 256 114 256 256 256zM854 490.667h128v-86h-128v86zM736 164.667l60 58 76-76-60-60zM872 748.667l-76-76-60 60 76 76zM554 914.667v-126h-84v126h84zM170 490.667v-86h-128v86h128zM288 732.667l-60-60-76 76 60 60z" />
<glyph unicode="&#xe432;" glyph-name="photo_size_select_actual" d="M214 212.667h596l-192 256-148-192-108 128zM896 810.667c42 0 86-44 86-86v-596c0-42-44-86-86-86h-768c-46 0-86 40-86 86v596c0 42 44 86 86 86h768z" />
<glyph unicode="&#xe433;" glyph-name="photo_size_select_large" d="M128 128.667h426l-136 182-106-138-78 92zM42 468.667h598v-426h-512c-46 0-86 40-86 86v340zM214 810.667h84v-86h-84v86zM384 810.667h86v-86h-86v86zM128 810.667v-86h-86c0 42 44 86 86 86zM726 128.667h84v-86h-84v86zM726 810.667h84v-86h-84v86zM42 640.667h86v-86h-86v86zM896 810.667c42 0 86-44 86-86h-86v86zM896 640.667h86v-86h-86v86zM554 810.667h86v-86h-86v86zM982 128.667c0-42-44-86-86-86v86h86zM896 468.667h86v-84h-86v84zM896 298.667h86v-86h-86v86z" />
<glyph unicode="&#xe434;" glyph-name="photo_size_select_small" d="M298 810.667v-86h-84v86h84zM470 810.667v-86h-86v86h86zM128 468.667v-84h-86v84h86zM128 810.667v-86h-86c0 42 44 86 86 86zM810 128.667v-86h-84v86h84zM810 810.667v-86h-84v86h84zM640 128.667v-86h-86v86h86zM128 640.667v-86h-86v86h86zM128 42.667c-46 0-86 40-86 86v170h428v-256h-342zM896 810.667c42 0 86-44 86-86h-86v86zM982 640.667v-86h-86v86h86zM640 810.667v-86h-86v86h86zM982 128.667c0-42-44-86-86-86v86h86zM982 468.667v-84h-86v84h86zM982 298.667v-86h-86v86h86z" />
<glyph unicode="&#xe43a;" glyph-name="movie_filter" d="M722 428.667l88 40-88 40-40 88-40-88-88-40 88-40 40-88zM480 288.667l118 52-118 54-54 118-52-118-118-54 118-52 52-118zM768 768.667h170v-598c0-46-38-86-84-86h-684c-46 0-84 40-84 86v512c0 46 38 86 84 86h44l84-128h128l-84 128h84l86-128h128l-86 128h86l86-128h128z" />
<glyph unicode="&#xe43b;" glyph-name="photo_filter" d="M566 480.667l116-54-116-54-54-116-54 116-116 54 116 54 54 116zM726 512.667l-40 88-88 40 88 40 40 88 40-88 88-40-88-40zM812 512.667h84v-384c0-46-38-86-84-86h-598c-46 0-86 40-86 86v596c0 46 40 86 86 86h384v-86h-384v-596h598v384z" />
<glyph unicode="&#xe53b;" glyph-name="layers" d="M512 256.667c-128.024 99.309-255.626 199.040-384 298l384 298 384-298c-128.375-98.958-255.974-198.693-384-298zM512 146.667l314 246 70-54-384-298-384 298 70 54z" />
<glyph unicode="&#xe53e;" glyph-name="local_atm" d="M854 170.667v512h-684v-512h684zM854 768.667c48 0 84-38 84-86v-512c0-48-36-86-84-86h-684c-48 0-84 38-84 86v512c0 48 36 86 84 86h684zM470 212.667v44h-86v84h170v44h-128c-24 0-42 18-42 42v128c0 24 18 42 42 42h44v44h84v-44h86v-84h-170v-44h128c24 0 42-18 42-42v-128c0-24-18-42-42-42h-44v-44h-84z" />
<glyph unicode="&#xe548;" glyph-name="local_hospital" d="M768 340.667v172h-170v170h-172v-170h-170v-172h170v-170h172v170h170zM810 810.667c46 0 86-40 86-86v-596c0-46-40-86-86-86h-596c-46 0-86 40-86 86v596c0 46 40 86 86 86h596z" />
<glyph unicode="&#xe54b;" glyph-name="local_library" d="M512 596.667c-70 0-128 58-128 128s58 128 128 128 128-58 128-128-58-128-128-128zM512 446.667c100 94 236 150 384 150v-468c-148 0-284-58-384-152-100 94-236 152-384 152v468c148 0 284-56 384-150z" />
<glyph unicode="&#xe54e;" glyph-name="local_offer" d="M234 640.667c36 0 64 28 64 64s-28 64-64 64-64-28-64-64 28-64 64-64zM914 444.667c16-16 24-36 24-60s-8-44-24-60l-300-300c-16-16-36-24-60-24s-44 8-60 24l-384 384c-16 16-24 36-24 60v300c0 46 38 84 84 84h300c24 0 44-8 60-24z" />
<glyph unicode="&#xe553;" glyph-name="local_play" d="M664 222.667l-46 174 140 116-180 10-66 168-66-168-182-10 142-116-46-174 152 98zM854 426.667c0-46 38-86 84-86v-170c0-46-38-86-84-86h-684c-46 0-84 40-84 86v170c48 0 84 40 84 86s-38 86-84 86v170c0 46 38 86 84 86h684c46 0 84-40 84-86v-170c-46 0-84-40-84-86z" />
<glyph unicode="&#xe55a;" glyph-name="person_pin" d="M768 256.667v38c0 86-170 132-256 132s-256-46-256-132v-38h512zM512 712.667c-64 0-116-52-116-116s52-114 116-114 116 50 116 114-52 116-116 116zM810 852.667c46 0 86-38 86-84v-598c0-46-40-86-86-86h-170l-128-128-128 128h-170c-48 0-86 40-86 86v598c0 46 38 84 86 84h596z" />
<glyph unicode="&#xe55c;" glyph-name="my_location" d="M512 128.667c166 0 298 132 298 298s-132 298-298 298-298-132-298-298 132-298 298-298zM894 468.667h88v-84h-88c-20-178-162-320-340-340v-88h-84v88c-178 20-320 162-340 340h-88v84h88c20 178 162 320 340 340v88h84v-88c178-20 320-162 340-340zM512 596.667c94 0 170-76 170-170s-76-170-170-170-170 76-170 170 76 170 170 170z" />
<glyph unicode="&#xe55d;" glyph-name="navigation" d="M512 852.667l320-780-30-30-290 128-290-128-30 30z" />
<glyph unicode="&#xe564;" glyph-name="terrain" d="M598 682.667l384-512h-940l256 342 192-256 68 50-120 162z" />
<glyph unicode="&#xe56a;" glyph-name="person_pin_circle" d="M512 340.667c72 0 134 36 170 92 0 56-114 88-170 88s-170-32-170-88c36-56 98-92 170-92zM512 768.667c-46 0-86-40-86-86 0-48 40-86 86-86s86 38 86 86c0 46-40 86-86 86zM512 852.667c164 0 298-134 298-298 0-224-298-554-298-554s-298 330-298 554c0 164 134 298 298 298z" />
<glyph unicode="&#xe56b;" glyph-name="zoom_out_map" d="M896 298.667v-256h-256l98 98-124 122 62 62 122-124zM384 42.667h-256v256l98-98 122 124 62-62-124-122zM128 554.667v256h256l-98-98 124-122-62-62-122 124zM640 810.667h256v-256l-98 98-122-124-62 62 124 122z" />
<glyph unicode="&#xe5c4;" glyph-name="arrow_back" d="M854 468.667v-84h-520l238-240-60-60-342 342 342 342 60-60-238-240h520z" />
<glyph unicode="&#xe5c5;" glyph-name="arrow_drop_down" d="M298 512.667h428l-214-214z" />
<glyph unicode="&#xe5c6;" glyph-name="arrow_drop_down_circle" d="M512 340.667l170 172h-340zM512 852.667c236 0 426-190 426-426s-190-426-426-426-426 190-426 426 190 426 426 426z" />
<glyph unicode="&#xe5c7;" glyph-name="arrow_drop_up" d="M298 340.667l214 214 214-214h-428z" />
<glyph unicode="&#xe5c8;" glyph-name="arrow_forward" d="M512 768.667l342-342-342-342-60 60 238 240h-520v84h520l-238 240z" />
<glyph unicode="&#xe5c9;" glyph-name="cancel" d="M726 272.667l-154 154 154 154-60 60-154-154-154 154-60-60 154-154-154-154 60-60 154 154 154-154zM512 852.667c236 0 426-190 426-426s-190-426-426-426-426 190-426 426 190 426 426 426z" />
<glyph unicode="&#xe5ca;" glyph-name="check" d="M384 248.667l452 452 60-60-512-512-238 238 60 60z" />
<glyph unicode="&#xe5cd;" glyph-name="close" d="M810 664.667l-238-238 238-238-60-60-238 238-238-238-60 60 238 238-238 238 60 60 238-238 238 238z" />
<glyph unicode="&#xe5ce;" glyph-name="expand_less" d="M512 596.667l256-256-60-60-196 196-196-196-60 60z" />
<glyph unicode="&#xe5cf;" glyph-name="expand_more" d="M708 572.667l60-60-256-256-256 256 60 60 196-196z" />
<glyph unicode="&#xe5d0;" glyph-name="fullscreen" d="M598 724.667h212v-212h-84v128h-128v84zM726 212.667v128h84v-212h-212v84h128zM214 512.667v212h212v-84h-128v-128h-84zM298 340.667v-128h128v-84h-212v212h84z" />
<glyph unicode="&#xe5d1;" glyph-name="fullscreen_exit" d="M682 596.667h128v-84h-212v212h84v-128zM598 128.667v212h212v-84h-128v-128h-84zM342 596.667v128h84v-212h-212v84h128zM214 256.667v84h212v-212h-84v128h-128z" />
<glyph unicode="&#xe5d2;" glyph-name="menu" d="M128 682.667h768v-86h-768v86zM128 384.667v84h768v-84h-768zM128 170.667v86h768v-86h-768z" />
<glyph unicode="&#xe5d3;" glyph-name="more_horiz" d="M512 512.667c46 0 86-40 86-86s-40-86-86-86-86 40-86 86 40 86 86 86zM768 512.667c46 0 86-40 86-86s-40-86-86-86-86 40-86 86 40 86 86 86zM256 512.667c46 0 86-40 86-86s-40-86-86-86-86 40-86 86 40 86 86 86z" />
<glyph unicode="&#xe5d4;" glyph-name="more_vert" d="M512 256.667c46 0 86-40 86-86s-40-86-86-86-86 40-86 86 40 86 86 86zM512 512.667c46 0 86-40 86-86s-40-86-86-86-86 40-86 86 40 86 86 86zM512 596.667c-46 0-86 40-86 86s40 86 86 86 86-40 86-86-40-86-86-86z" />
<glyph unicode="&#xe5d5;" glyph-name="refresh" d="M754 668.667l100 100v-300h-300l138 138c-46 46-110 76-180 76-142 0-256-114-256-256s114-256 256-256c112 0 208 70 242 170h88c-38-148-170-256-330-256-188 0-340 154-340 342s152 342 340 342c94 0 180-38 242-100z" />
<glyph unicode="&#xe5d6;" glyph-name="unfold_less" d="M708 708.667l-196-196-196 196 60 60 136-136 136 136zM316 144.667l196 196 196-196-60-60-136 136-136-136z" />
<glyph unicode="&#xe5d7;" glyph-name="unfold_more" d="M512 162.667l136 136 60-60-196-196-196 196 60 60zM512 690.667l-136-136-60 60 196 196 196-196-60-60z" />
<glyph unicode="&#xe5d8;" glyph-name="arrow_upward" d="M170 426.667l342 342 342-342-62-60-238 238v-520h-84v520l-240-238z" />
<glyph unicode="&#xe5d9;" glyph-name="subdirectory_arrow_left" d="M470 554.667l60-60-154-154h392v428h86v-512h-478l154-154-60-60-256 256z" />
<glyph unicode="&#xe5da;" glyph-name="subdirectory_arrow_right" d="M810 298.667l-256-256-60 60 154 154h-478v512h86v-428h392l-154 154 60 60z" />
<glyph unicode="&#xe5db;" glyph-name="arrow_downward" d="M854 426.667l-342-342-342 342 62 60 238-238v520h84v-520l240 238z" />
<glyph unicode="&#xe5dc;" glyph-name="first_page" d="M256 682.667h86v-512h-86v512zM786 230.667l-60-60-256 256 256 256 60-60-196-196z" />
<glyph unicode="&#xe5dd;" glyph-name="last_page" d="M682 682.667h86v-512h-86v512zM238 622.667l60 60 256-256-256-256-60 60 196 196z" />
<glyph unicode="&#xe611;" glyph-name="do_not_disturb_alt" d="M512 84.667c188 0 342 154 342 342 0 76-28 150-74 210l-478-478c60-46 134-74 210-74zM170 426.667c0-76 28-150 74-210l478 478c-60 46-134 74-210 74-188 0-342-154-342-342zM512 852.667c234 0 426-192 426-426s-192-426-426-426-426 192-426 426 192 426 426 426z" />
<glyph unicode="&#xe614;" glyph-name="event_available" d="M810 128.667v468h-596v-468h596zM810 810.667c46 0 86-40 86-86v-596c0-46-40-86-86-86h-596c-48 0-86 40-86 86v596c0 46 38 86 86 86h42v86h86v-86h340v86h86v-86h42zM706 466.667l-254-254-136 136 46 46 90-90 208 208z" />
<glyph unicode="&#xe615;" glyph-name="event_busy" d="M810 128.667v468h-596v-468h596zM810 810.667c46 0 86-40 86-86v-596c0-46-40-86-86-86h-596c-48 0-86 40-86 86v596c0 46 38 86 86 86h42v86h86v-86h340v86h86v-86h42zM398 212.667l-46 46 104 104-104 104 46 46 104-104 104 104 44-46-104-104 104-104-44-46-104 104z" />
<glyph unicode="&#xe617;" glyph-name="folder_special" d="M766 212.667l-34 142 110 96-144 12-58 134-58-134-144-12 110-96-34-142 126 74zM854 682.667c46 0 84-40 84-86v-426c0-46-38-86-84-86h-684c-46 0-84 40-84 86v512c0 46 38 86 84 86h256l86-86h342z" />
<glyph unicode="&#xe624;" glyph-name="sim_card_alert" d="M554 384.667v212h-84v-212h84zM554 212.667v86h-84v-86h84zM768 852.667c46 0 86-38 86-84v-684c0-46-40-84-86-84h-512c-46 0-86 38-86 84l2 512 254 256h342z" />
<glyph unicode="&#xe626;" glyph-name="sms_failed" d="M554 512.667v170h-84v-170h84zM554 340.667v86h-84v-86h84zM854 852.667c46 0 84-38 84-84v-512c0-46-38-86-84-86h-598l-170-170v768c0 46 38 84 84 84h684z" />
<glyph unicode="&#xe627;" glyph-name="sync" d="M512 170.667v128l170-170-170-172v128c-188 0-342 154-342 342 0 66 20 130 54 182l62-62c-20-36-30-76-30-120 0-142 114-256 256-256zM512 768.667c188 0 342-154 342-342 0-66-20-130-54-182l-62 62c20 36 30 76 30 120 0 142-114 256-256 256v-128l-170 170 170 172v-128z" />
<glyph unicode="&#xe62a;" glyph-name="system_update" d="M682 384.667l-170-172-170 172h128v212h84v-212h128zM726 128.667v596h-428v-596h428zM726 894.667c46 0 84-38 84-84v-768c0-46-38-86-84-86h-428c-46 0-84 40-84 86v768c0 46 38 86 84 86z" />
<glyph unicode="&#xe62f;" glyph-name="vpn_lock" d="M426 44.667v84c-46 0-84 38-84 84v44l-206 204c-6-24-8-50-8-76 0-174 130-320 298-340zM808 426.667h86c2-14 2-28 2-42 0-236-190-428-426-428s-428 192-428 428 192 426 428 426c44 0 88-8 128-20v-108c0-46-40-86-86-86h-86v-84c0-24-18-44-42-44h-86v-84h256c24 0 44-20 44-44v-128h42c38 0 70-24 82-58 56 60 88 142 88 230 0 14 0 28-2 42zM904 768.667v20c0 40-32 74-72 74s-72-34-72-74v-20h144zM938 768.667c24 0 44-20 44-44v-170c0-24-20-42-44-42h-212c-24 0-44 18-44 42v170c0 24 20 44 44 44v20c0 58 48 108 106 108s106-50 106-108v-20z" />
<glyph unicode="&#xe638;" glyph-name="confirmation_number" d="M554 576.667v84h-84v-84h84zM554 384.667v84h-84v-84h84zM554 192.667v84h-84v-84h84zM938 512.667c-46 0-84-40-84-86s38-86 84-86v-170c0-46-38-86-84-86h-684c-46 0-84 40-84 86v170c48 0 84 40 84 86s-38 86-84 86v170c0 48 38 86 84 86h684c46 0 84-38 84-86v-170z" />
<glyph unicode="&#xe639;" glyph-name="live_tv" d="M384 512.667l298-172-298-170v342zM896 84.667v512h-768v-512h768zM896 682.667c46 0 86-38 86-86v-512c0-46-40-84-86-84h-768c-46 0-86 38-86 84v512c0 48 40 86 86 86h324l-140 140 30 30 170-170 170 170 30-30-140-140h324z" />
<glyph unicode="&#xe63a;" glyph-name="ondemand_video" d="M682 468.667l-298-170v342zM896 212.667v512h-768v-512h768zM896 810.667c46 0 86-38 86-86l-2-512c0-46-38-84-84-84h-214v-86h-340v86h-214c-48 0-86 38-86 84v512c0 48 38 86 86 86h768z" />
<glyph unicode="&#xe63b;" glyph-name="personal_video" d="M896 212.667v512h-768v-512h768zM896 810.667c46 0 86-38 86-86l-2-512c0-46-38-84-84-84h-214v-86h-340v86h-214c-48 0-86 38-86 84v512c0 48 38 86 86 86h768z" />
<glyph unicode="&#xe63c;" glyph-name="power" d="M684 640.667c42 0 84-44 84-86v-234l-150-150v-128h-212v128l-150 150v234c0 42 42 86 84 86h2v170h84v-170h172v170h84z" />
<glyph unicode="&#xe63f;" glyph-name="enhanced_encryption" d="M682 256.667v84h-128v128h-84v-128h-128v-84h128v-128h84v128h128zM380 682.667v-86h264v86c0 72-60 132-132 132s-132-60-132-132zM768 596.667c46 0 86-38 86-84v-428c0-46-40-84-86-84h-512c-46 0-86 38-86 84v428c0 46 40 84 86 84h42v86c0 118 96 214 214 214s214-96 214-214v-86h42z" />
<glyph unicode="&#xe641;" glyph-name="no_encryption" d="M380 682.667v-52l-78 78c12 106 100 188 210 188 118 0 214-96 214-214v-86h42c46 0 86-38 86-84v-356l-442 440h232v86c0 72-60 132-132 132s-132-60-132-132zM896 8.667l-52-52-48 48c-8-2-18-4-28-4h-512c-46 0-86 38-86 84v428c0 32 20 60 46 74l-88 86 52 52z" />
<glyph unicode="&#xe643;" glyph-name="do_not_disturb_off" d="M298 384.667h148l-86 84h-62v-84zM96 842.667l832-832-56-54-118 120c-68-48-152-76-242-76-236 0-426 190-426 426 0 90 28 174 76 242l-120 118zM726 468.667h-148l-308 308c68 48 152 76 242 76 236 0 426-190 426-426 0-90-28-174-76-242l-198 200h62v84z" />
<glyph unicode="&#xe645;" glyph-name="priority_high" d="M426 810.667h172v-512h-172v512zM426 128.667c0 48 38 84 86 84s86-36 86-84-38-86-86-86-86 38-86 86z" />
<glyph unicode="&#xe6e1;" glyph-name="show_chart" d="M150 150.667l-64 64 320 320 170-172 302 340 60-60-362-408-170 172z" />
<glyph unicode="&#xe7e9;" glyph-name="cake" d="M768 554.667c70 0 128-58 128-128v-66c0-46-38-84-84-84-22 0-42 8-58 24l-92 92-92-92c-32-32-86-32-118 0l-90 92-92-92c-16-16-36-24-58-24-46 0-84 38-84 84v66c0 70 58 128 128 128h214v86h84v-86h214zM708 256.667c28-28 64-44 104-44 32 0 60 10 84 26v-196c0-24-18-42-42-42h-684c-24 0-42 18-42 42v196c24-16 52-26 84-26 40 0 76 16 104 44l46 46 46-46c56-56 152-56 208 0l46 46zM512 682.667c-46 0-86 40-86 86 0 16 6 32 14 44l72 126 72-126c8-12 14-28 14-44 0-46-38-86-86-86z" />
<glyph unicode="&#xe7f0;" glyph-name="group_add" d="M554 384.667c86 0 256-42 256-128v-86h-512v86c0 86 170 128 256 128zM838 376.667c86-14 186-54 186-120v-86h-128v86c0 50-22 88-58 120zM554 468.667c-70 0-128 58-128 128s58 128 128 128 128-58 128-128-58-128-128-128zM768 468.667c-14 0-26 2-38 6 24 34 38 76 38 122s-14 88-38 122c12 4 24 6 38 6 70 0 128-58 128-128s-58-128-128-128zM342 512.667v-86h-128v-128h-86v128h-128v86h128v128h86v-128h128z" />
<glyph unicode="&#xe7f4;" glyph-name="notifications" d="M768 256.667l86-86v-42h-684v42l86 86v212c0 132 70 240 192 270v30c0 36 28 64 64 64s64-28 64-64v-30c122-30 192-140 192-270v-212zM512 0.667c-48 0-86 38-86 84h172c0-46-40-84-86-84z" />
<glyph unicode="&#xe7f5;" glyph-name="notifications_none" d="M682 212.667v256c0 106-64 192-170 192s-170-86-170-192v-256h340zM768 256.667l86-86v-42h-684v42l86 86v212c0 132 70 240 192 270v30c0 36 28 64 64 64s64-28 64-64v-30c122-30 192-140 192-270v-212zM512 0.667c-46 0-86 38-86 84h172c0-46-40-84-86-84z" />
<glyph unicode="&#xe7f6;" glyph-name="notifications_off" d="M768 312.667l-382 402c10 4 20 10 30 14h2l12 6c6 2 12 2 18 4v30c0 36 28 64 64 64s64-28 64-64v-30c122-30 192-138 192-270v-156zM512 0.667c-48 0-86 36-86 84h172c0-48-38-84-86-84zM334 676.667c187.235-193.432 375.34-385.994 562-580l-54-54-86 86h-586v42l86 86v214c0 54 12 104 34 146l-120 118 54 56z" />
<glyph unicode="&#xe7f7;" glyph-name="notifications_active" d="M512 0.667c-48 0-86 38-86 84h170c0-49.675-37.225-84-84-84zM768 468.667v-212l86-86v-42h-684v42l86 86v212c0 132 70 240 192 270v30c0 36 28 64 64 64s64-28 64-64v-30c122-30 192-140 192-270zM852 490.667c-6 114-64 212-150 274l60 60c102-78 170-198 176-334h-86zM324 764.667c-88-62-146-160-152-274h-86c6 136 74 256 176 334z" />
<glyph unicode="&#xe7f9;" glyph-name="pages" d="M810 810.667c46 0 86-40 86-86v-256h-214l44 172-172-44v214h256zM726 212.667l-44 172h214v-256c0-46-40-86-86-86h-256v214zM342 384.667l-44-172 172 44v-214h-256c-46 0-86 40-86 86v256h214zM128 724.667c0 46 40 86 86 86h256v-214l-172 44 44-172h-214v256z" />
<glyph unicode="&#xe7fb;" glyph-name="people" d="M682 384.667c100 0 300-50 300-150v-106h-256v106c0 64-34 112-84 148 14 2 28 2 40 2zM342 384.667c100 0 298-50 298-150v-106h-598v106c0 100 200 150 300 150zM342 468.667c-70 0-128 58-128 128s58 128 128 128 126-58 126-128-56-128-126-128zM682 468.667c-70 0-128 58-128 128s58 128 128 128 128-58 128-128-58-128-128-128z" />
<glyph unicode="&#xe7fc;" glyph-name="people_outline" d="M704 660.667c-46 0-86-38-86-84s40-86 86-86 86 40 86 86-40 84-86 84zM704 426.667c-82 0-150 68-150 150s68 148 150 148 150-66 150-148-68-150-150-150zM320 660.667c-46 0-86-38-86-84s40-86 86-86 86 40 86 86-40 84-86 84zM320 426.667c-82 0-150 68-150 150s68 148 150 148 150-66 150-148-68-150-150-150zM918 192.667v52c0 24-110 76-214 76-46 0-90-12-128-24 14-16 22-32 22-52v-52h320zM534 192.667v52c0 24-110 76-214 76s-214-52-214-76v-52h428zM704 384.667c92 0 278-48 278-140v-116h-940v116c0 92 186 140 278 140 52 0 130-16 192-44 62 28 140 44 192 44z" />
<glyph unicode="&#xe7fd;" glyph-name="person" d="M512 340.667c114 0 342-56 342-170v-86h-684v86c0 114 228 170 342 170zM512 426.667c-94 0-170 76-170 170s76 172 170 172 170-78 170-172-76-170-170-170z" />
<glyph unicode="&#xe7fe;" glyph-name="person_add" d="M640 340.667c114 0 342-56 342-170v-86h-684v86c0 114 228 170 342 170zM256 512.667h128v-86h-128v-128h-86v128h-128v86h128v128h86v-128zM640 426.667c-94 0-170 76-170 170s76 172 170 172 170-78 170-172-76-170-170-170z" />
<glyph unicode="&#xe7ff;" glyph-name="person_outline" d="M512 384.667c114 0 342-58 342-172v-128h-684v128c0 114 228 172 342 172zM512 768.667c94 0 170-78 170-172s-76-170-170-170-170 76-170 170 76 172 170 172zM512 302.667c-126 0-260-62-260-90v-46h520v46c0 28-134 90-260 90zM512 686.667c-50 0-90-40-90-90s40-88 90-88 90 38 90 88-40 90-90 90z" />
<glyph unicode="&#xe801;" glyph-name="poll" d="M726 212.667v172h-86v-172h86zM554 212.667v428h-84v-428h84zM384 212.667v300h-86v-300h86zM810 810.667c46 0 86-40 86-86v-596c0-46-40-86-86-86h-596c-46 0-86 40-86 86v596c0 46 40 86 86 86h596z" />
<glyph unicode="&#xe80b;" glyph-name="public" d="M764 196.667c56 60 90 142 90 230 0 142-88 266-214 316v-18c0-46-40-84-86-84h-84v-86c0-24-20-42-44-42h-84v-86h256c24 0 42-18 42-42v-128h42c38 0 70-26 82-60zM470 88.667v82c-46 0-86 40-86 86v42l-204 204c-6-24-10-50-10-76 0-174 132-318 300-338zM512 852.667c236 0 426-190 426-426s-190-426-426-426-426 190-426 426 190 426 426 426z" />
<glyph unicode="&#xe80c;" glyph-name="school" d="M512 810.667l470-256v-342h-86v296l-384-210-470 256zM214 376.667l298-164 298 164v-172l-298-162-298 162v172z" />
<glyph unicode="&#xe80d;" glyph-name="share" d="M768 252.667c68 0 124-56 124-124s-56-126-124-126-124 58-124 126c0 10 0 20 2 28l-302 176c-24-22-54-34-88-34-70 0-128 58-128 128s58 128 128 128c34 0 64-12 88-34l300 174c-2 10-4 20-4 30 0 70 58 128 128 128s128-58 128-128-58-128-128-128c-34 0-64 14-88 36l-300-176c2-10 4-20 4-30s-2-20-4-30l304-176c22 20 52 32 84 32z" />
<glyph unicode="&#xe80e;" glyph-name="whatshot" d="M500 128.667c114 0 204 90 204 204 0 60-8 116-24 172-44-58-122-94-198-110s-120-62-120-132c0-74 62-134 138-134zM576 910.667c166-134 278-340 278-570 0-188-154-340-342-340s-342 152-342 340c0 144 52 278 138 380v-16c0-88 66-158 154-158s146 70 146 158c0 92-32 206-32 206z" />
<glyph unicode="&#xe813;" glyph-name="sentiment_satisfied" d="M512 256.667c64 0 118 34 148 84h70c-34-88-118-148-218-148s-184 60-218 148h70c30-50 84-84 148-84zM512 84.667c188 0 342 154 342 342s-154 342-342 342-342-154-342-342 154-342 342-342zM512 852.667c236 0 426-190 426-426s-190-426-426-426-426 190-426 426 190 426 426 426zM298 532.667c0 36 28 64 64 64s64-28 64-64-28-64-64-64-64 28-64 64zM598 532.667c0 36 28 64 64 64s64-28 64-64-28-64-64-64-64 28-64 64z" />
<glyph unicode="&#xe836;" glyph-name="radio_button_unchecked" d="M512 84.667c188 0 342 154 342 342s-154 342-342 342-342-154-342-342 154-342 342-342zM512 852.667c236 0 426-190 426-426s-190-426-426-426-426 190-426 426 190 426 426 426z" />
<glyph unicode="&#xe837;" glyph-name="radio_button_checked" d="M512 84.667c188 0 342 154 342 342s-154 342-342 342-342-154-342-342 154-342 342-342zM512 852.667c236 0 426-190 426-426s-190-426-426-426-426 190-426 426 190 426 426 426zM512 640.667c118 0 214-96 214-214s-96-214-214-214-214 96-214 214 96 214 214 214z" />
<glyph unicode="&#xe838;" glyph-name="star" d="M512 202.667l-264-160 70 300-232 202 306 26 120 282 120-282 306-26-232-202 70-300z" />
<glyph unicode="&#xe83a;" glyph-name="star_border" d="M512 280.667l160-96-42 182 142 124-188 16-72 172-72-172-188-16 142-124-42-182zM938 544.667l-232-202 70-300-264 160-264-160 70 300-232 202 306 26 120 282 120-282z" />
<glyph unicode="&#xe84d;" glyph-name="3d_rotation" d="M512 938.667c268 0 488-206 510-468h-64c-14 160-114 294-254 360l-58-56-162 162zM706 434.667c0 69.871-27.338 114-94 114h-40v-246h38c51.287 0 80.544 27.904 92 68 4 14 4 30 4 48v16zM612 596.667c76.364 0 121.865-38.664 144-94 8-20 10-44 10-68v-16c0-52.811-15.142-91.142-42-118-26.824-26.824-61.104-44-114-44h-98v340h100zM414 430.667c30.607-12.243 56-36.493 56-78 0-16-4-28-10-40s-12-24-22-32c-18.756-15.005-47.096-24-80-24-62.192 0-108 31.488-108 94h54c0-30.904 23.204-50 54-50 35.74 0 56 17.079 56 54 0 37.687-24.79 54-62 54h-32v44h32c34.608 0 58 16.061 58 50 0 33.049-17.68 50-52 50-28.888 0-50-17.163-50-46h-56c0 29.787 15.103 49.103 30 64 19.854 15.883 41.797 26 76 26 51.295 0 80.772-19.544 98-54 6-12 8-24 8-40 0-36.376-24.671-59.335-50-72zM320 22.667l58 56 162-162-28-2c-268 0-488 208-510 470h64c16-160 114-296 254-362z" />
<glyph unicode="&#xe854;" glyph-name="add_shopping_cart" d="M306 308.667c0-6 4-10 10-10h494v-86h-512c-46 0-84 40-84 86 0 14 4 28 10 40l58 106-154 324h-86v84h140c27.003-56.33 53.665-113.001 80-170 34.063-71.271 67.603-143.063 102-214h300c54.786 99.881 110.533 198.8 164 300l74-42-164-298c-14-26-42-44-74-44h-318l-38-70zM726 170.667c46 0 84-40 84-86s-38-84-84-84-86 38-86 84 40 86 86 86zM298 170.667c46 0 86-40 86-86s-40-84-86-84-84 38-84 84 38 86 84 86zM470 554.667v128h-128v86h128v128h84v-128h128v-86h-128v-128h-84z" />
<glyph unicode="&#xe855;" glyph-name="alarm" d="M512 84.667c166 0 298 134 298 300s-132 298-298 298-298-132-298-298 132-300 298-300zM512 768.667c212 0 384-172 384-384s-172-384-384-384-384 172-384 384 172 384 384 384zM534 596.667v-224l170-100-32-52-202 120v256h64zM336 794.667l-196-164-54 64 196 164zM938 694.667l-54-66-196 166 54 64z" />
<glyph unicode="&#xe858;" glyph-name="alarm_on" d="M450 318.667l210 212 46-46-256-256-136 136 44 44zM512 84.667c166 0 298 134 298 300s-132 298-298 298-298-132-298-298 132-300 298-300zM512 768.667c212 0 384-172 384-384s-172-384-384-384-384 172-384 384 172 384 384 384zM336 794.667l-196-164-54 64 196 164zM938 694.667l-54-66-196 166 54 64z" />
<glyph unicode="&#xe85a;" glyph-name="announcement" d="M554 298.667v86h-84v-86h84zM554 468.667v256h-84v-256h84zM854 852.667c46 0 84-38 84-84v-512c0-46-38-86-84-86h-598l-170-170v768c0 46 38 84 84 84h684z" />
<glyph unicode="&#xe85b;" glyph-name="aspect_ratio" d="M896 126.667v600h-768v-600h768zM896 810.667c46 0 86-40 86-86v-596c0-46-40-86-86-86h-768c-46 0-86 40-86 86v596c0 46 40 86 86 86h768zM298 554.667v-128h-84v214h212v-86h-128zM810 426.667v-214h-212v86h128v128h84z" />
<glyph unicode="&#xe863;" glyph-name="autorenew" d="M800 608.667c34-52 54-116 54-182 0-188-154-342-342-342v-128l-170 172 170 170v-128c142 0 256 114 256 256 0 44-12 84-30 120zM512 682.667c-142 0-256-114-256-256 0-44 10-84 30-120l-62-62c-34 52-54 116-54 182 0 188 154 342 342 342v128l170-172-170-170v128z" />
<glyph unicode="&#xe868;" glyph-name="bug_report" d="M598 426.667v86h-172v-86h172zM598 256.667v84h-172v-84h172zM854 596.667v-84h-90c2-14 4-30 4-44v-42h86v-86h-86v-42c0-14-2-28-4-42h90v-86h-120c-44-76-128-128-222-128s-178 52-222 128h-120v86h90c-2 14-4 28-4 42v42h-86v86h86v42c0 14 2 30 4 44h-90v84h120c20 34 46 62 78 84l-70 70 60 60 94-92c20 4 40 6 60 6s40-2 60-6l94 92 60-60-70-70c32-22 58-50 78-84h120z" />
<glyph unicode="&#xe869;" glyph-name="build" d="M968 128.667c18-12 18-42-4-60l-98-98c-18-18-42-18-60 0l-388 388c-98-38-212-18-294 64-86 86-108 214-56 316l188-184 128 128-184 184c102 46 230 30 316-56 82-82 102-196 64-294z" />
<glyph unicode="&#xe86a;" glyph-name="cached" d="M256 426.667h128l-170-170-172 170h128c0 188 154 342 342 342 66 0 130-20 182-54l-62-62c-36 20-76 30-120 30-142 0-256-114-256-256zM810 596.667l172-170h-128c0-188-154-342-342-342-66 0-130 20-182 54l62 62c36-20 76-30 120-30 142 0 256 114 256 256h-128z" />
<glyph unicode="&#xe86c;" glyph-name="check_circle" d="M426 212.667l384 384-60 62-324-324-152 152-60-60zM512 852.667c236 0 426-190 426-426s-190-426-426-426-426 190-426 426 190 426 426 426z" />
<glyph unicode="&#xe86f;" glyph-name="code" d="M622 230.667l198 196-198 196 60 60 256-256-256-256zM402 230.667l-60-60-256 256 256 256 60-60-198-196z" />
<glyph unicode="&#xe871;" glyph-name="dashboard" d="M554 810.667h342v-256h-342v256zM554 42.667v426h342v-426h-342zM128 42.667v256h342v-256h-342zM128 384.667v426h342v-426h-342z" />
<glyph unicode="&#xe872;" glyph-name="delete" d="M810 768.667v-86h-596v86h148l44 42h212l44-42h148zM256 128.667v512h512v-512c0-46-40-86-86-86h-340c-46 0-86 40-86 86z" />
<glyph unicode="&#xe873;" glyph-name="description" d="M554 554.667h236l-236 234v-234zM682 340.667v86h-340v-86h340zM682 170.667v86h-340v-86h340zM598 852.667l256-256v-512c0-46-40-84-86-84h-512c-46 0-86 38-86 84l2 684c0 46 38 84 84 84h342z" />
<glyph unicode="&#xe876;" glyph-name="done" d="M384 246.667l452 454 60-60-512-512-238 238 58 60z" />
<glyph unicode="&#xe877;" glyph-name="done_all" d="M18 366.667l60 60 238-238-60-60zM948 700.667l62-60-512-512-240 238 62 60 178-178zM768 640.667l-270-272-60 60 270 272z" />
<glyph unicode="&#xe879;" glyph-name="exit_to_app" d="M810 810.667c46 0 86-40 86-86v-596c0-46-40-86-86-86h-596c-48 0-86 40-86 86v170h86v-170h596v596h-596v-170h-86v170c0 46 38 86 86 86h596zM430 272.667l110 112h-412v84h412l-110 112 60 60 214-214-214-214z" />
<glyph unicode="&#xe87a;" glyph-name="explore" d="M606 332.667l162 350-350-162-162-350zM512 852.667c236 0 426-190 426-426s-190-426-426-426-426 190-426 426 190 426 426 426zM512 472.667c26 0 46-20 46-46s-20-46-46-46-46 20-46 46 20 46 46 46z" />
<glyph unicode="&#xe87b;" glyph-name="extension" d="M874 468.667c58 0 108-48 108-106s-50-106-108-106h-64v-172c0-46-38-84-84-84h-162v64c0 64-52 114-116 114s-116-50-116-114v-64h-162c-46 0-84 38-84 84v162h64c64 0 114 52 114 116s-50 116-114 116h-64v162c0 46 38 84 84 84h172v64c0 58 48 108 106 108s106-50 106-108v-64h172c46 0 84-38 84-84v-172h64z" />
<glyph unicode="&#xe87d;" glyph-name="favorite" d="M512 28.667l-62 56c-220 200-364 330-364 492 0 132 102 234 234 234 74 0 146-36 192-90 46 54 118 90 192 90 132 0 234-102 234-234 0-162-144-294-364-494z" />
<glyph unicode="&#xe87e;" glyph-name="favorite_border" d="M516 146.667c204 184 338 306 338 430 0 86-64 148-150 148-66 0-130-42-152-100h-80c-22 58-86 100-152 100-86 0-150-62-150-148 0-124 134-246 338-430l4-4zM704 810.667c132 0 234-102 234-234 0-162-144-292-364-492l-62-56-62 54c-220 200-364 332-364 494 0 132 102 234 234 234 74 0 146-36 192-90 46 54 118 90 192 90z" />
<glyph unicode="&#xe880;" glyph-name="find_in_page" d="M384 384.667c0 70 58 128 128 128s128-58 128-128-58-128-128-128-128 58-128 128zM854 102.667l-164 164c22 34 36 74 36 118 0 118-96 212-214 212s-214-94-214-212 96-214 214-214c44 0 84 14 118 36l188-190c-14-10-30-16-50-16h-512c-46 0-86 38-86 84l2 684c0 46 38 84 84 84h342l256-256v-494z" />
<glyph unicode="&#xe881;" glyph-name="find_replace" d="M710 292.667l206-208-62-62-208 206c-50-36-110-58-176-58-82 0-158 34-212 88l-88-88v256h256l-108-108c38-38 94-62 152-62 104 0 188 72 208 170h86c-6-50-26-96-54-134zM470 682.667c-104 0-190-72-210-170h-86c20 144 146 256 296 256 82 0 156-34 210-88l88 88v-256h-256l108 108c-38 38-92 62-150 62z" />
<glyph unicode="&#xe884;" glyph-name="get_app" d="M214 170.667h596v-86h-596v86zM810 554.667l-298-298-298 298h170v256h256v-256h170z" />
<glyph unicode="&#xe887;" glyph-name="help" d="M642 458.667c24 24 40 58 40 96 0 94-76 170-170 170s-170-76-170-170h84c0 46 40 86 86 86s86-40 86-86c0-24-10-44-26-60l-52-54c-30-32-50-74-50-120v-22h84c0 64 20 88 50 120zM554 128.667v84h-84v-84h84zM512 852.667c236 0 426-190 426-426s-190-426-426-426-426 190-426 426 190 426 426 426z" />
<glyph unicode="&#xe888;" glyph-name="highlight_off" d="M512 84.667c188 0 342 154 342 342s-154 342-342 342-342-154-342-342 154-342 342-342zM512 852.667c236 0 426-190 426-426s-190-426-426-426-426 190-426 426 190 426 426 426zM622 596.667l60-60-110-110 110-110-60-60-110 110-110-110-60 60 110 110-110 110 60 60 110-110z" />
<glyph unicode="&#xe88a;" glyph-name="home" d="M426 84.667h-212v342h-128l426 384 426-384h-128v-342h-212v256h-172v-256z" />
<glyph unicode="&#xe88b;" glyph-name="hourglass_empty" d="M512 448.667l170 170v150h-340v-150zM682 234.667l-170 170-170-170v-150h340v150zM256 852.667h512v-256l-170-170 170-170v-256h-512v256l170 170-170 170v256z" />
<glyph unicode="&#xe88c;" glyph-name="hourglass_full" d="M256 852.667h512v-256l-170-170 170-170v-256h-512v256l170 170-170 170v256z" />
<glyph unicode="&#xe88e;" glyph-name="info" d="M554 554.667v86h-84v-86h84zM554 212.667v256h-84v-256h84zM512 852.667c236 0 426-190 426-426s-190-426-426-426-426 190-426 426 190 426 426 426z" />
<glyph unicode="&#xe88f;" glyph-name="info_outline" d="M470 554.667v86h84v-86h-84zM512 84.667c188 0 342 154 342 342s-154 342-342 342-342-154-342-342 154-342 342-342zM512 852.667c236 0 426-190 426-426s-190-426-426-426-426 190-426 426 190 426 426 426zM470 212.667v256h84v-256h-84z" />
<glyph unicode="&#xe890;" glyph-name="input" d="M470 256.667v128h-428v84h428v128l170-170zM896 810.667c46 0 86-38 86-86v-598c0-46-40-84-86-84h-768c-46 0-86 38-86 84v172h86v-172h768v600h-768v-172h-86v170c0 46 40 86 86 86h768z" />
<glyph unicode="&#xe892;" glyph-name="label" d="M752 688.667l186-262-186-262c-16-22-42-36-70-36h-468c-46 0-86 38-86 84v428c0 46 40 84 86 84h468c28 0 54-14 70-36z" />
<glyph unicode="&#xe893;" glyph-name="label_outline" d="M682 212.667l152 214-152 214h-468v-428h468zM752 688.667l186-262-186-262c-16-22-42-36-70-36h-468c-46 0-86 38-86 84v428c0 46 40 84 86 84h468c28 0 54-14 70-36z" />
<glyph unicode="&#xe894;" glyph-name="language" d="M698 340.667h144c6 28 12 56 12 86s-6 58-12 86h-144c4-28 6-56 6-86s-2-58-6-86zM622 104.667c78 26 146 82 186 152h-126c-14-54-34-104-60-152zM612 340.667c4 28 6 56 6 86s-2 58-6 86h-200c-4-28-6-56-6-86s2-58 6-86h200zM512 86.667c36 52 64 108 82 170h-164c18-62 46-118 82-170zM342 596.667c14 54 34 104 60 152-78-26-146-82-186-152h126zM216 256.667c40-70 108-126 186-152-26 48-46 98-60 152h-126zM182 340.667h144c-4 28-6 56-6 86s2 58 6 86h-144c-6-28-12-56-12-86s6-58 12-86zM512 766.667c-36-52-64-108-82-170h164c-18 62-46 118-82 170zM808 596.667c-40 70-108 126-186 152 26-48 46-98 60-152h126zM512 852.667c236 0 426-190 426-426s-190-426-426-426-426 190-426 426 190 426 426 426z" />
<glyph unicode="&#xe896;" glyph-name="list" d="M298 640.667h598v-86h-598v86zM298 212.667v86h598v-86h-598zM298 384.667v84h598v-84h-598zM128 554.667v86h86v-86h-86zM128 212.667v86h86v-86h-86zM128 384.667v84h86v-84h-86z" />
<glyph unicode="&#xe897;" glyph-name="lock" d="M644 596.667v86c0 72-60 132-132 132s-132-60-132-132v-86h264zM512 212.667c46 0 86 40 86 86s-40 86-86 86-86-40-86-86 40-86 86-86zM768 596.667c46 0 86-38 86-84v-428c0-46-40-84-86-84h-512c-46 0-86 38-86 84v428c0 46 40 84 86 84h42v86c0 118 96 214 214 214s214-96 214-214v-86h42z" />
<glyph unicode="&#xe898;" glyph-name="lock_open" d="M768 84.667v428h-512v-428h512zM768 596.667c46 0 86-38 86-84v-428c0-46-40-84-86-84h-512c-46 0-86 38-86 84v428c0 46 40 84 86 84h388v86c0 72-60 132-132 132s-132-60-132-132h-82c0 118 96 214 214 214s214-96 214-214v-86h42zM512 212.667c-46 0-86 40-86 86s40 86 86 86 86-40 86-86-40-86-86-86z" />
<glyph unicode="&#xe899;" glyph-name="lock_outline" d="M768 84.667v428h-512v-428h512zM380 682.667v-86h264v86c0 72-60 132-132 132s-132-60-132-132zM768 596.667c46 0 86-38 86-84v-428c0-46-40-84-86-84h-512c-46 0-86 38-86 84v428c0 46 40 84 86 84h42v86c0 118 96 214 214 214s214-96 214-214v-86h42zM512 212.667c-46 0-86 40-86 86s40 86 86 86 86-40 86-86-40-86-86-86z" />
<glyph unicode="&#xe89c;" glyph-name="note_add" d="M554 554.667h236l-236 234v-234zM682 256.667v84h-128v128h-84v-128h-128v-84h128v-128h84v128h128zM598 852.667l256-256v-512c0-46-40-84-86-84h-512c-46 0-86 38-86 84l2 684c0 46 38 84 84 84h342z" />
<glyph unicode="&#xe89e;" glyph-name="open_in_new" d="M598 810.667h298v-298h-86v152l-418-418-60 60 418 418h-152v86zM810 128.667v298h86v-298c0-46-40-86-86-86h-596c-48 0-86 40-86 86v596c0 46 38 86 86 86h298v-86h-298v-596h596z" />
<glyph unicode="&#xe89f;" glyph-name="open_with" d="M598 298.667v-128h128l-214-214-214 214h128v128h172zM982 426.667l-214-214v128h-128v172h128v128zM384 512.667v-172h-128v-128l-214 214 214 214v-128h128zM426 554.667v128h-128l214 214 214-214h-128v-128h-172z" />
<glyph unicode="&#xe8a0;" glyph-name="pageview" d="M716 162.667l60 60-124 124c18 30 30 64 30 102 0 106-86 192-192 192s-192-86-192-192 86-192 192-192c38 0 72 12 102 30zM854 768.667c46 0 84-40 84-86v-512c0-46-38-86-84-86h-684c-46 0-84 40-84 86v512c0 46 38 86 84 86h684zM490 554.667c58 0 108-48 108-106s-50-108-108-108-106 50-106 108 48 106 106 106z" />
<glyph unicode="&#xe8a1;" glyph-name="payment" d="M854 596.667v86h-684v-86h684zM854 170.667v256h-684v-256h684zM854 768.667c48 0 84-38 84-86v-512c0-48-36-86-84-86h-684c-48 0-84 38-84 86v512c0 48 36 86 84 86h684z" />
<glyph unicode="&#xe8a3;" glyph-name="perm_contact_calendar" d="M768 170.667v42c0 86-170 132-256 132s-256-46-256-132v-42h512zM512 682.667c-70 0-128-58-128-128s58-128 128-128 128 58 128 128-58 128-128 128zM810 810.667c46 0 86-40 86-86v-596c0-46-40-86-86-86h-596c-48 0-86 40-86 86v596c0 46 38 86 86 86h42v86h86v-86h340v86h86v-86h42z" />
<glyph unicode="&#xe8a7;" glyph-name="perm_media" d="M298 298.667h598l-150 192-106-128-150 192zM938 768.667c46 0 86-40 86-86v-426c0-46-40-86-86-86h-682c-46 0-86 40-86 86l2 512c0 46 38 84 84 84h256l86-84h340zM86 682.667v-598h768v-84h-768c-46 0-86 38-86 84v598h86z" />
<glyph unicode="&#xe8aa;" glyph-name="picture_in_picture" d="M896 126.667v600h-768v-600h768zM896 810.667c46 0 86-40 86-86v-596c0-46-40-86-86-86h-768c-46 0-86 40-86 86v596c0 46 40 86 86 86h768zM810 640.667v-256h-340v256h340z" />
<glyph unicode="&#xe8ac;" glyph-name="power_settings_new" d="M760 718.667c82-70 136-176 136-292 0-212-172-384-384-384s-384 172-384 384c0 116 54 222 136 292l60-60c-66-54-110-138-110-232 0-166 132-298 298-298s298 132 298 298c0 94-42 176-110 230zM554 810.667v-426h-84v426h84z" />
<glyph unicode="&#xe8af;" glyph-name="question_answer" d="M726 426.667c0-24-20-42-44-42h-426l-170-172v598c0 24 18 42 42 42h554c24 0 44-18 44-42v-384zM896 682.667c24 0 42-18 42-42v-640l-170 170h-470c-24 0-42 18-42 42v86h554v384h86z" />
<glyph unicode="&#xe8b3;" glyph-name="restore" d="M512 596.667h64v-180l150-90-32-52-182 110v212zM554 810.667c212 0 384-172 384-384s-172-384-384-384c-106 0-200 42-270 112l60 62c54-54 128-88 210-88 166 0 300 132 300 298s-134 298-300 298-298-132-298-298h128l-172-172-4 6-166 166h128c0 212 172 384 384 384z" />
<glyph unicode="&#xe8b4;" glyph-name="room" d="M512 448.667c58 0 106 48 106 106s-48 106-106 106-106-48-106-106 48-106 106-106zM512 852.667c166 0 298-132 298-298 0-224-298-554-298-554s-298 330-298 554c0 166 132 298 298 298z" />
<glyph unicode="&#xe8b5;" glyph-name="schedule" d="M534 640.667v-224l192-114-32-54-224 136v256h64zM512 84.667c188 0 342 154 342 342s-154 342-342 342-342-154-342-342 154-342 342-342zM512 852.667c236 0 426-190 426-426s-190-426-426-426-426 190-426 426 190 426 426 426z" />
<glyph unicode="&#xe8b6;" glyph-name="search" d="M406 340.667c106 0 192 86 192 192s-86 192-192 192-192-86-192-192 86-192 192-192zM662 340.667l212-212-64-64-212 212v34l-12 12c-48-42-112-66-180-66-154 0-278 122-278 276s124 278 278 278 276-124 276-278c0-68-24-132-66-180l12-12h34z" />
<glyph unicode="&#xe8b8;" glyph-name="settings" d="M512 276.667c82 0 150 68 150 150s-68 150-150 150-150-68-150-150 68-150 150-150zM830 384.667l90-70c8-6 10-18 4-28l-86-148c-6-10-16-12-26-8l-106 42c-22-16-46-32-72-42l-16-112c-2-10-10-18-20-18h-172c-10 0-18 8-20 18l-16 112c-26 10-50 24-72 42l-106-42c-10-4-20-2-26 8l-86 148c-6 10-4 22 4 28l90 70c-2 14-2 28-2 42s0 28 2 42l-90 70c-8 6-10 18-4 28l86 148c6 10 16 12 26 8l106-42c22 16 46 32 72 42l16 112c2 10 10 18 20 18h172c10 0 18-8 20-18l16-112c26-10 50-24 72-42l106 42c10 4 20 2 26-8l86-148c6-10 4-22-4-28l-90-70c2-14 2-28 2-42s0-28-2-42z" />
<glyph unicode="&#xe8b9;" glyph-name="settings_applications" d="M736 426.667c0 10 0 20-2 30l64 48c6 4 6 14 2 20l-60 104c-4 6-12 8-18 6l-74-30c-16 12-32 22-50 30l-12 78c-2 6-6 12-14 12h-120c-8 0-12-4-14-12l-12-80c-18-8-34-16-50-28l-74 30c-6 2-14-2-18-8l-60-102c-4-6-4-16 2-20l64-48c-2-10-2-20-2-30s0-20 2-30l-64-48c-6-4-6-14-2-20l60-104c4-6 12-8 18-6l74 30c16-12 32-22 50-30l12-78c2-6 6-12 14-12h120c8 0 12 4 14 12l12 80c18 8 34 16 50 28l74-30c6-2 14 2 18 8l60 102c4 6 4 16-2 20l-64 48c2 10 2 20 2 30zM810 810.667c48 0 86-40 86-86v-596c0-46-38-86-86-86h-596c-48 0-86 40-86 86v596c0 46 38 86 86 86h596zM512 512.667c46 0 86-40 86-86s-40-86-86-86-86 40-86 86 40 86 86 86z" />
<glyph unicode="&#xe8bf;" glyph-name="settings_input_antenna" d="M512 896.667c258 0 470-212 470-470h-86c0 212-172 384-384 384s-384-172-384-384h-86c0 258 212 470 470 470zM554 328.667v-140l146-146-60-60-128 128-128-128-60 60 146 146v140c-38 16-64 54-64 98 0 58 48 106 106 106s106-48 106-106c0-44-26-82-64-98zM512 724.667c166 0 298-132 298-298h-84c0 118-96 214-214 214s-214-96-214-214h-84c0 166 132 298 298 298z" />
<glyph unicode="&#xe8c4;" glyph-name="settings_overscan" d="M896 126.667v600h-768v-600h768zM896 810.667c46 0 86-40 86-86v-596c0-46-40-86-86-86h-768c-46 0-86 40-86 86v596c0 46 40 86 86 86h768zM598 256.667l-86-108-86 108h172zM256 512.667v-172l-106 86zM768 512.667l106-86-106-86v172zM512 704.667l86-108h-172z" />
<glyph unicode="&#xe8cc;" glyph-name="shopping_cart" d="M726 170.667c46 0 84-40 84-86s-38-84-84-84-86 38-86 84 40 86 86 86zM42 852.667h140l40-84h632c24 0 42-20 42-44 0-8-2-14-6-20l-152-276c-14-26-42-44-74-44h-318l-38-70-2-6c0-6 4-10 10-10h494v-86h-512c-46 0-84 40-84 86 0 14 4 28 10 40l58 106-154 324h-86v84zM298 170.667c46 0 86-40 86-86s-40-84-86-84-84 38-84 84 38 86 84 86z" />
<glyph unicode="&#xe8d0;" glyph-name="stars" d="M692 170.667l-48 206 160 138-210 18-82 192-82-194-210-16 160-138-48-206 180 108zM512 852.667c236 0 426-190 426-426s-190-426-426-426-426 190-426 426 190 426 426 426z" />
<glyph unicode="&#xe8d3;" glyph-name="supervisor_account" d="M384 384.667c28 0 64-4 102-12-88-48-102-112-102-148v-96h-298v106c0 100 198 150 298 150zM704 340.667c78 0 234-38 234-116v-96h-468v96c0 78 156 116 234 116zM384 468.667c-70 0-128 58-128 128s58 128 128 128 128-58 128-128-58-128-128-128zM704 426.667c-58 0-106 48-106 106s48 108 106 108 106-50 106-108-48-106-106-106z" />
<glyph unicode="&#xe8d4;" glyph-name="swap_horiz" d="M896 554.667l-170-170v128h-300v84h300v128zM298 468.667v-128h300v-84h-300v-128l-170 170z" />
<glyph unicode="&#xe8d5;" glyph-name="swap_vert" d="M384 810.667l170-170h-128v-300h-84v300h-128zM682 212.667h128l-170-170-170 170h128v300h84v-300z" />
<glyph unicode="&#xe8d6;" glyph-name="swap_vertical_circle" d="M746 298.667h-106v170h-86v-170h-106l150-150zM278 554.667h106v-170h86v170h106l-150 150zM512 852.667c236 0 426-190 426-426s-190-426-426-426-426 190-426 426 190 426 426 426z" />
<glyph unicode="&#xe8d7;" glyph-name="system_update_alt" d="M896 788.667c46 0 86-38 86-84v-598c0-46-40-86-86-86h-768c-46 0-86 40-86 86v598c0 46 40 84 86 84h256v-84h-256v-598h768v598h-256v84h256zM512 234.667l-170 170h128v384h84v-384h128z" />
<glyph unicode="&#xe8d8;" glyph-name="tab" d="M896 128.667v426h-342v170h-426v-596h768zM896 810.667c46 0 86-40 86-86v-596c0-46-40-86-86-86h-768c-46 0-86 40-86 86v596c0 46 40 86 86 86h768z" />
<glyph unicode="&#xe8d9;" glyph-name="tab_unselected" d="M726 42.667v86h84v-86h-84zM554 42.667v86h86v-86h-86zM896 384.667v84h86v-84h-86zM896 42.667v86h86c0-46-40-86-86-86zM214 724.667v86h84v-86h-84zM214 42.667v86h84v-86h-84zM384 724.667v86h86v-86h-86zM896 212.667v86h86v-86h-86zM896 810.667c46 0 86-40 86-86v-170h-428v256h342zM128 42.667c-46 0-86 40-86 86h86v-86zM42 212.667v86h86v-86h-86zM384 42.667v86h86v-86h-86zM42 724.667c0 46 40 86 86 86v-86h-86zM42 384.667v84h86v-84h-86zM42 554.667v86h86v-86h-86z" />
<glyph unicode="&#xe8da;" glyph-name="theaters" d="M768 554.667v86h-86v-86h86zM768 384.667v84h-86v-84h86zM768 212.667v86h-86v-86h86zM342 554.667v86h-86v-86h86zM342 384.667v84h-86v-84h86zM342 212.667v86h-86v-86h86zM768 810.667h86v-768h-86v86h-86v-86h-340v86h-86v-86h-86v768h86v-86h86v86h340v-86h86v86z" />
<glyph unicode="&#xe8db;" glyph-name="thumb_down" d="M810 810.667h172v-512h-172v512zM640 810.667c46 0 86-40 86-86v-426c0-24-10-44-26-60l-280-282-46 46c-12 12-18 26-18 44v14l42 196h-270c-46 0-86 38-86 84l2 4h-2v82c0 12 2 22 6 32l130 300c12 30 42 52 78 52h384z" />
<glyph unicode="&#xe8dc;" glyph-name="thumb_up" d="M982 512.667l-2-4h2v-82c0-12-2-22-6-32l-130-300c-12-30-42-52-78-52h-384c-46 0-86 40-86 86v426c0 24 10 44 26 60l280 282 46-46c12-12 18-26 18-44v-14l-42-196h270c46 0 86-38 86-84zM42 42.667v512h172v-512h-172z" />
<glyph unicode="&#xe8dd;" glyph-name="thumbs_up_down" d="M960 512.667c36 0 64-28 64-64v-278c0-18-6-34-18-46l-212-210-34 34c-8 8-14 20-14 34 9.903 48.764 20.016 97.317 30 146h-222c-24 0-42 18-42 42v54c0 8 2 14 4 22l98 226c10 22 32 40 58 40h288zM512 682.667v-54c0-8-2-14-4-22l-98-226c-10-22-32-40-58-40h-288c-36 0-64 28-64 64v278c0 18 6 34 18 46l212 210 34-34c8-8 14-20 14-34-9.903-48.764-20.016-97.317-30-146h222c24 0 42-18 42-42z" />
<glyph unicode="&#xe8de;" glyph-name="toc" d="M810 384.667v84h86v-84h-86zM810 640.667h86v-86h-86v86zM810 212.667v86h86v-86h-86zM128 212.667v86h598v-86h-598zM128 384.667v84h598v-84h-598zM128 554.667v86h598v-86h-598z" />
<glyph unicode="&#xe8df;" glyph-name="today" d="M298 512.667h214v-214h-214v214zM810 128.667v468h-596v-468h596zM810 810.667c46 0 86-40 86-86v-596c0-46-40-86-86-86h-596c-48 0-86 40-86 86v596c0 46 38 86 86 86h42v86h86v-86h340v86h86v-86h42z" />
<glyph unicode="&#xe8e2;" glyph-name="translate" d="M678 212.667h138l-70 186zM790 512.667l192-512h-86l-48 128h-202l-48-128h-86l192 512h86zM550 296.667l-34-88-132 132-214-212-60 60 218 214c-54 60-96 124-128 194h86c26-50 58-98 98-142 62 68 108 146 136 228h-478v86h300v84h84v-84h300v-86h-126c-32-100-84-196-158-278l-2-2z" />
<glyph unicode="&#xe8e3;" glyph-name="trending_down" d="M682 170.667l98 98-208 208-170-170-316 316 60 60 256-256 170 170 268-268 98 98v-256h-256z" />
<glyph unicode="&#xe8e4;" glyph-name="trending_flat" d="M938 426.667l-170-170v128h-640v84h640v128z" />
<glyph unicode="&#xe8e5;" glyph-name="trending_up" d="M682 682.667h256v-256l-98 98-268-268-170 170-256-256-60 60 316 316 170-170 208 208z" />
<glyph unicode="&#xe8e6;" glyph-name="turned_in" d="M726 810.667c46 0 84-40 84-86v-682l-298 128-298-128v682c0 46 38 86 84 86h428z" />
<glyph unicode="&#xe8e7;" glyph-name="turned_in_not" d="M726 170.667v554h-428v-554l214 94zM726 810.667c46 0 84-40 84-86v-682l-298 128-298-128v682c0 46 38 86 84 86h428z" />
<glyph unicode="&#xe8e8;" glyph-name="verified_user" d="M426 212.667l342 342-60 60-282-280-110 110-60-60zM512 896.667l384-172v-256c0-236-164-458-384-512-220 54-384 276-384 512v256z" />
<glyph unicode="&#xe8ef;" glyph-name="view_list" d="M384 724.667h512v-170h-512v170zM384 128.667v170h512v-170h-512zM384 340.667v172h512v-172h-512zM170 554.667v170h172v-170h-172zM170 128.667v170h172v-170h-172zM170 340.667v172h172v-172h-172z" />
<glyph unicode="&#xe8f0;" glyph-name="view_module" d="M682 724.667h214v-256h-214v256zM426 468.667v256h214v-256h-214zM682 170.667v256h214v-256h-214zM426 170.667v256h214v-256h-214zM170 170.667v256h214v-256h-214zM170 468.667v256h214v-256h-214z" />
<glyph unicode="&#xe8f4;" glyph-name="visibility" d="M512 554.667c70 0 128-58 128-128s-58-128-128-128-128 58-128 128 58 128 128 128zM512 212.667c118 0 214 96 214 214s-96 214-214 214-214-96-214-214 96-214 214-214zM512 746.667c214 0 396-132 470-320-74-188-256-320-470-320s-396 132-470 320c74 188 256 320 470 320z" />
<glyph unicode="&#xe8f5;" glyph-name="visibility_off" d="M506 554.667h6c70 0 128-58 128-128v-8zM322 520.667c-14-28-24-60-24-94 0-118 96-214 214-214 34 0 66 10 94 24l-66 66c-8-2-18-4-28-4-70 0-128 58-128 128 0 10 2 20 4 28zM86 756.667l54 54 756-756-54-54c-47.968 47.365-96.266 94.401-144 142-58-24-120-36-186-36-214 0-396 132-470 320 34 84 90 156 160 212-39.017 38.983-77.307 78.693-116 118zM512 640.667c-28 0-54-6-78-16l-92 92c52 20 110 30 170 30 214 0 394-132 468-320-32-80-82-148-146-202l-124 124c10 24 16 50 16 78 0 118-96 214-214 214z" />
<glyph unicode="&#xe8f9;" glyph-name="work" d="M598 682.667v86h-172v-86h172zM854 682.667c48 0 84-38 84-86v-468c0-48-36-86-84-86h-684c-48 0-84 38-84 86v468c0 48 36 86 84 86h172v86c0 48 36 84 84 84h172c48 0 84-36 84-84v-86h172z" />
<glyph unicode="&#xe8fa;" glyph-name="youtube_searched_for" d="M726 340.667l212-212-62-64-214 214v32l-12 12c-48-42-112-66-180-66-52 0-100 14-142 38l64 62c24-10 50-16 78-16 106 0 192 86 192 192s-86 192-192 192-192-86-192-192h148l-176-170-164 170h106c0 150 124 278 278 278s278-124 278-278c0-70-26-132-68-180l12-12h34z" />
<glyph unicode="&#xe8fb;" glyph-name="eject" d="M512 724.667l284-426h-568zM214 212.667h596v-84h-596v84z" />
<glyph unicode="&#xe8fd;" glyph-name="help_outline" d="M512 682.667c94 0 170-76 170-170 0-106-128-118-128-214h-84c0 138 128 128 128 214 0 46-40 84-86 84s-86-38-86-84h-84c0 94 76 170 170 170zM512 84.667c188 0 342 154 342 342s-154 342-342 342-342-154-342-342 154-342 342-342zM512 852.667c236 0 426-190 426-426s-190-426-426-426-426 190-426 426 190 426 426 426zM470 170.667v86h84v-86h-84z" />
<glyph unicode="&#xe8fe;" glyph-name="reorder" d="M128 724.667h768v-84h-768v84zM128 468.667v86h768v-86h-768zM128 128.667v84h768v-84h-768zM128 298.667v86h768v-86h-768z" />
<glyph unicode="&#xe8ff;" glyph-name="zoom_in" d="M512 512.667h-86v-86h-42v86h-86v42h86v86h42v-86h86v-42zM406 340.667c106 0 192 86 192 192s-86 192-192 192-192-86-192-192 86-192 192-192zM662 340.667l212-212-64-64-212 212v34l-12 12c-48-42-112-66-180-66-154 0-278 122-278 276s124 278 278 278 276-124 276-278c0-68-24-132-66-180l12-12h34z" />
<glyph unicode="&#xe900;" glyph-name="zoom_out" d="M298 554.667h214v-42h-214v42zM406 340.667c106 0 192 86 192 192s-86 192-192 192-192-86-192-192 86-192 192-192zM662 340.667l212-212-64-64-212 212v34l-12 12c-48-42-112-66-180-66-154 0-278 122-278 276s124 278 278 278 276-124 276-278c0-68-24-132-66-180l12-12h34z" />
<glyph unicode="&#xe906;" glyph-name="play_for_work" d="M256 340.667h86c0-94 76-170 170-170s170 76 170 170h86c0-142-114-256-256-256s-256 114-256 256zM470 724.667h84v-238h150l-192-192-192 192h150v238z" />
<glyph unicode="&#xe909;" glyph-name="indeterminate_check_box" d="M726 384.667v84h-428v-84h428zM810 810.667c46 0 86-40 86-86v-596c0-46-40-86-86-86h-596c-46 0-86 40-86 86v596c0 46 40 86 86 86h596z" />
<glyph unicode="&#xe90a;" glyph-name="offline_pin" d="M440 340.667l286 286-60 60-226-226-82 82-60-60zM726 170.667v86h-428v-86h428zM512 852.667c234 0 426-192 426-426s-192-426-426-426-426 192-426 426 192 426 426 426z" />
<glyph unicode="&#xe90c;" glyph-name="copyright" d="M512 84.667c188 0 342 154 342 342s-154 342-342 342-342-154-342-342 154-342 342-342zM512 852.667c236 0 426-190 426-426s-190-426-426-426-426 190-426 426 190 426 426 426zM506 548.667c-61.522 0-80-54.457-80-116v-12c0-61.538 18.508-116 80-116 37.558 0 70 22.925 70 60h76c0-39.042-21.138-68.404-44-88-25.786-22.102-55.81-36-102-36-109.169 0-164 72.147-164 180v12c0 51.712 14.52 98.881 40 128 26.398 30.169 68.684 54 124 54 44.274 0 81.256-15.256 104-38 22.005-22.005 42-55.974 42-98h-76c0 10-2 18-6 26s-8 18-14 24c-10.835 10.835-29.352 20-50 20z" />
<glyph unicode="&#xe90d;" glyph-name="fingerprint" d="M636 0.667h-6c-68 18-112 44-158 90-60 60-92 138-92 222 0 70 58 126 130 126s132-56 132-126c0-46 38-82 88-82s90 36 90 82c0 160-140 292-310 292-122 0-232-68-282-172-16-34-24-76-24-120 0-34 2-86 28-154 9.157-27.471-30.939-36.654-40-14-20 56-32 110-32 168 0 52 10 98 30 138 56 120 182 198 320 198 194 0 352-152 352-336 0-70-60-124-132-124s-130 54-130 124c0 46-40 84-90 84s-88-38-88-84c0-72 28-140 80-192 40-40 80-62 140-78 12-2 16-14 14-26-2-10-12-16-20-16zM530 312.667c0-97.515 80.578-182 192-182 19.928 0 65.546 14.722 70-12 2-12-6-24-18-26-24-4-46-4-52-4-50 0-96 12-132 38-64 44-102 112-102 186 0 12 10 22 22 22s20-10 20-22zM416 8.667c-6 0-10 2-14 6-38 38-58 62-86 114-30 52-46 116-46 184 0 126 108 230 242 230s242-104 242-230c0-12-10-20-22-20s-22 8-22 20c0 104-88 188-198 188s-198-84-198-188c0-62 12-118 38-164 28-50 48-70 80-104 8-8 8-22 0-30-4-4-10-6-16-6zM150 524.667c-17.624 0-27.785 15.691-18 32 42 60 96 108 160 140 134 70 306 70 440 0 64-32 118-78 160-138 6-10 4-24-6-30s-24-4-30 6c-38 54-86 94-144 124-122 62-278 64-400 0-58-30-108-72-146-126-4-6-10-8-16-8zM760 748.667c-4 0-8 0-10 2-82 42-154 60-238 60s-166-20-238-60c-23.381-14.029-43.278 24.033-20 38 80 44 166 64 258 64 90 0 170-20 258-64 18.211-10.927 10.406-40-10-40z" />
<glyph unicode="&#xe90f;" glyph-name="lightbulb_outline" d="M634 380.667c58 40 92 104 92 174 0 118-96 214-214 214s-214-96-214-214c0-70 34-134 92-174l36-26v-98h172v98zM512 852.667c164 0 298-134 298-298 0-102-50-190-128-244v-98c0-24-18-42-42-42h-256c-24 0-42 18-42 42v98c-78 54-128 142-128 244 0 164 134 298 298 298zM384 42.667v42h256v-42c0-24-18-42-42-42h-172c-24 0-42 18-42 42z" />
<glyph unicode="&#xe911;" glyph-name="picture_in_picture_alt" d="M896 126.667v600h-768v-600h768zM982 128.667c0-46-40-86-86-86h-768c-46 0-86 40-86 86v598c0 46 40 84 86 84h768c46 0 86-38 86-84v-598zM810 468.667v-256h-340v256h340z" />
<glyph unicode="&#xe912;" glyph-name="important_devices" d="M510 554.667h130l-106-76 40-124-104 78-106-78 40 124-106 76h130l42 128zM854 852.667c46 0 84-36 84-84v-214h-84v214h-768v-512h554v-86h-86v-86h86v-84h-342v84h86v86h-298c-48 0-86 40-86 86v512c0 48 38 84 86 84h768zM982 84.667v300h-214v-300h214zM982 468.667c24 0 42-18 42-42v-384c0-24-18-42-42-42h-214c-24 0-42 18-42 42v384c0 24 18 42 42 42h214z" />
<glyph unicode="&#xe913;" glyph-name="touch_app" d="M804 260.667c22-10 38-32 38-58v-8l-32-226c-4-32-30-54-62-54h-290c-18 0-32 6-44 18l-212 212 34 34c8 8 20 14 34 14 4 0 6-2 10-2l146-30v458c0 36 28 64 64 64s64-28 64-64v-256h34c8 0 14-2 22-4zM384 458.667c-52 34-86 94-86 160 0 106 86 192 192 192s192-86 192-192c0-66-32-126-84-160v160c0 58-50 106-108 106s-106-48-106-106v-160z" />
<glyph unicode="&#xe915;" glyph-name="compare_arrows" d="M640 384.667l-170 170 170 170v-128h298v-84h-298v-128zM384 340.667v128l170-170-170-170v128h-298v84h298z" />
<glyph unicode="&#xe916;" glyph-name="date_range" d="M810 84.667v470h-596v-470h596zM810 768.667c46 0 86-40 86-86v-598c0-46-40-84-86-84h-596c-48 0-86 38-86 84v598c0 46 38 86 86 86h42v84h86v-84h340v84h86v-84h42zM726 468.667v-84h-86v84h86zM554 468.667v-84h-84v84h84zM384 468.667v-84h-86v84h86z" />
<glyph unicode="&#xe917;" glyph-name="donut_large" d="M554 130.667c128 18 238 126 256 254h128c-20-214-170-364-384-384v130zM810 468.667c-18 128-128 236-256 254v130c214-20 364-170 384-384h-128zM470 722.667c-128-20-256-146-256-296s128-276 256-296v-130c-214 22-384 204-384 426s170 404 384 426v-130z" />
<glyph unicode="&#xe91d;" glyph-name="pets" d="M740 304.667c56-56 126-116 112-204-12-44-44-88-100-100-32-6-130 18-236 18h-8c-106 0-204-24-236-18-56 12-88 56-100 100-12 86 56 148 112 204 38 44 68 80 106 124 20 24 44 46 74 56 4 2 10 4 14 4 12 2 22 2 34 2s24 0 34-2c4 0 10-2 14-4 30-10 54-32 74-56 38-44 68-80 106-124zM726 532.667c0 58 48 108 106 108s106-50 106-108-48-106-106-106-106 48-106 106zM534 704.667c0 58 48 106 106 106s106-48 106-106-48-108-106-108-106 50-106 108zM278 704.667c0 58 48 106 106 106s106-48 106-106-48-108-106-108-106 50-106 108zM86 532.667c0 58 48 108 106 108s106-50 106-108-48-106-106-106-106 48-106 106z" />
<glyph unicode="&#xe91f;" glyph-name="record_voice_over" d="M856 852.667c166-172 166-430 0-596l-70 68c118 136 118 332 0 460zM716 710.667c86-94 86-224 0-310l-72 72c36 50 36 116 0 166zM384 298.667c114 0 342-56 342-170v-86h-684v86c0 114 228 170 342 170zM214 554.667c0 94 76 170 170 170s170-76 170-170-76-170-170-170-170 76-170 170z" />
<glyph unicode="&#xe922;" glyph-name="timeline" d="M982 596.667c0-46-40-84-86-84-8 0-16 0-22 2l-152-152c2-6 4-14 4-22 0-46-40-84-86-84s-86 38-86 84c0 8 2 16 4 22l-110 110c-6-2-14-4-22-4s-16 2-22 4l-194-194c2-6 4-14 4-22 0-46-40-86-86-86s-86 40-86 86 40 84 86 84c8 0 16 0 22-2l194 194c-2 6-2 14-2 22 0 46 38 86 84 86s86-40 86-86c0-8 0-16-2-22l108-108c6 2 14 2 22 2s16 0 22-2l152 150c-2 6-4 14-4 22 0 46 40 86 86 86s86-40 86-86z" />
</font>
</defs>
</svg>
